Остаться в Живых 6 сезон, 18 серий (полный) / LOST (Стивен Уильямс, Джек Бендер) [2010, США, приключения, мистика, драма, HDTVRip 720x400] (DD 5.1 Lostfilm)+(DD 5.1 Original)+Sub 

Цитировать

Остаться в Живых / LOST / Сезон 6 (HDTVRip HQ) abcHD
Год выпуска: 2010
Производство: Touchstone Television, ABC Studios, Bad Robot
Страна: США
Жанр: приключения, мистика, драма
Продолжительность: ~ 42 мин/серия
Перевод: Профессиональный (многоголосый, закадровый) Lostfilm
Русские субтитры: Есть полные неанглийские диалоги переведены вшитыми субтитрами.
Режиссер: Стивен Уильямс, Джек Бендер, Эрик Ланьювилль, Поль А. Эдуордс, Стивен Семел
В ролях: Мэттью Фокс (Джек), Эванжелина Лили (Кейт), Нэвин Эндрюс (Саид), Терри О'Куинн (Лок), Майкл Эмерсон (Бен), Джош Холоуэй (Сойер), Эмили де Рэйвин (Клэр), Хорхе Гарсия (Херли), Дэниел Дей Ким (Джин), Ким Юнджин (Сун), Элизабет Митчелл (Джулиет), Генри Ян Кьюсик (Десмонд) и др.
Описание: После того, как красавец-лайнер, совершающий авиарейс 815 из Сиднея в Лос-Анджелес, неожиданно потерпел крушение, часть пассажиров, чудом оставшаяся в живых, оказалась на пустынном острове посреди Тихого океана. В экстремальных ситуациях проявляются самые светлые и самые темные стороны людей. Лишь немногие находят в себе силы, о наличии которых ранее даже и не подозревали.
Среди них - люди самых различных слоев общества: врач, бегущий от правосудия преступник, мошенник, солдат Иракской армии, служивший следователем по делам военнопленных, супружеская пара из Кореи, прикованный к инвалидному креслу человек, который чудесным образом выздоравливает, едва оказавшись на острове. Жертвы крушения пытаются вернуться домой, но постепенно начинают понимать, что приютивший их остров полон тайн и загадок. Эпизоды из прошлого и будущего героев фильма, рассказывают об их жизни до и после падения самолета. Остров предлагает своим пленникам возможность искупить свои грехи или опуститься еще ниже в своих пороках. Героям решают для себя проблемы веры, разума, предопределенности судьбы и свободы выбора. Но к чему все это ведет? В этом и кроется самая страшная тайна сериала.
Остров скрывает множество тайн, среди которых – таинственное чудовище и полярные медведи, поселки, оснащенные электричеством и водопроводом и еще одна группа жителей острова, названная "Другими" и загадочный человек по имени Джейкоб. Оставшиеся в живых обнаруживают признаки тех, кто прибыл на остров до них - корабль 19-го века "Черная скала", обломки древней статуи и бункеры, принадлежащие группе научных исследователей "Инициатива Дхармы", населявших остров в недалеком прошлом. Кроме того, они обнаружили грузовое судно, которое, как им казалось, пришло, чтобы их спасти, но в конечном случае, чуть не привело их к гибели. Джеку, Кейт, Херли, Саиду и сыну Клэр, Аарону, удалось вернуться на большую землю мир. Весь мир узнал их как Шестерку с Ошаника. Но, как оказалось, их счеты с островом еще, увы, не сведены.
Доп. информация: Исходник - TS поток, записанный с телеканала abcHD с битрейдом видео: 22 Mbps, аудио: 640 kbps. Русская звуковая дорожка сделана путем наложения чистого голоса переводчиков на центральную звуковую дорожку (войсовером). Корейские разговоры переведены вшитыми субтитрами. Размер рипа выбран из расчета 6 серий на DVD5. Релиз делался для бытовых (железных) плееров. Звуковые дорожки переключаются как у ДВД.
[url=http:// СПАМ
Качество: HDTVRip
Формат: AVI
Видео кодек: XviD
Аудио кодек: AC3
Видео: 720х400, 1900 kbps, 23.976 fps
Аудио 1: 48000 Hz, DD 5.1 (L,C,R,sl,sr) LFE, 448 kbps, Студия "Kravec" (Lostfilm)
Аудио 2: 48000 Hz, DD 5.1 (L,C,R,sl,sr) LFE, 448 kbps, Оригинальный Английский
Субтитры: Русские полные, ASS, srt, перевод Disappear (отдельными файлами)
Источник: 720p, 59.94 fps, AVC, (22 Mbps Average)
Перевод и озвучивание:
Изготовление рипа и подготовка релиза - CEZAR ©

Список серий

1-2. LA X
3. What Kate Does
4. The Substitute
5. Lighthouse
6. Sundown
7. Dr. Linus
8. Recon
9. Ab Aeterno
10. The Package
11. Happily Ever After
12. Everybody Loves Hugo
13. The Last Recruit
14. The Candidate
15. Across the Sea
16. What They Died For
17-18. The End

Альтернативные раздачи

=81&s=2&o=1&tm=-1&my=0&allw=1&nm=6 сезон]см здесь
-

MediaInfo

Данные исходника

General
ID : 1
Complete name : F:\torrent\LOST\Season 6\HDTV 22Mb\en\Lost S06E01E02 720p HDTV 22MBit H.264 CtrlHD.ts
Format : MPEG-TS
File size : 14.4 GiB
Duration : 1h 25mn
Overall bit rate : 24.0 Mbps
Video
ID : 256 (0x100)
Menu ID : 1 (0x1)
Format : AVC
Format/Info : Advanced Video Codec
Format profile : High@L4.1
Format settings, CABAC : Yes
Format settings, ReFrames : 4 frames
Duration : 1h 25mn
Bit rate : 21.7 Mbps
Width : 1 280 pixels
Height : 720 pixels
Display aspect ratio : 16:9
Frame rate : 59.940 fps
Resolution : 8 bits
Colorimetry : 4:2:0
Scan type : Progressive
Bits/(Pixel*Frame) : 0.393
Stream size : 13.0 GiB (90%)
Color primaries : BT.709-5, BT.1361, IEC 61966-2-4, SMPTE RP177
Transfer characteristics : BT.709-5, BT.1361
Matrix coefficients : BT.709-5, BT.1361, IEC 61966-2-4 709, SMPTE RP177
Audio
ID : 257 (0x101)
Menu ID : 1 (0x1)
Format : AC-3
Format/Info : Audio Coding 3
Duration : 1h 25mn
Bit rate mode : Constant
Bit rate : 640 Kbps
Channel(s) : 6 channels
Channel positions : Front: L C R, Surround: L R, LFE
Sampling rate : 48.0 KHz
Stream size : 394 MiB (3%)
Language : English

Данные Рипа

General
Complete name : G:\LOST\Season6\season6_HDTVrip_xVid\Lost.S06E01E02.HDTVRip.DD5.1 DD5.1.cezar.avi
Format : AVI
Format/Info : Audio Video Interleave
File size : 1.57 GiB
Duration : 1h 21mn
Overall bit rate : 2 747 Kbps
Writing application : VirtualDubMod 1.5.10.2 (build 2540/release)
Writing library : VirtualDubMod build 2540/release
Video
ID : 0
Format : MPEG-4 Visual
Format profile : AdvancedSimple@L5
Format settings, BVOP : Yes
Format settings, QPel : No
Format settings, GMC : No warppoints
Format settings, Matrix : Custom
Codec ID : XVID
Codec ID/Hint : XviD
Duration : 1h 21mn
Bit rate : 1 900 Kbps
Width : 720 pixels
Height : 400 pixels
Display aspect ratio : 16:9
Frame rate : 23.976 fps
Resolution : 24 bits
Colorimetry : 4:2:0
Scan type : Progressive
Bits/(Pixel*Frame) : 0.274
Stream size : 1.05 GiB (67%)
Writing library : XviD 1.2.1 (UTC 2008-12-04)
Audio #1
ID : 1
Format : AC-3
Format/Info : Audio Coding 3
Codec ID : 2000
Duration : 1h 21mn
Bit rate mode : Constant
Bit rate : 448 Kbps
Channel(s) : 6 channels
Channel positions : Front: L C R, Surround: L R, LFE
Sampling rate : 48.0 KHz
Stream size : 262 MiB (16%)
Alignment : Split accross interleaves
Interleave, duration : 42 ms (1.00 video frame)
Interleave, preload duration : 500 ms
Title : Kravec
Audio #2
ID : 2
Format : AC-3
Format/Info : Audio Coding 3
Codec ID : 2000
Duration : 1h 21mn
Bit rate mode : Constant
Bit rate : 448 Kbps
Channel(s) : 6 channels
Channel positions : Front: L C R, Surround: L R, LFE
Sampling rate : 48.0 KHz
Stream size : 262 MiB (16%)
Alignment : Split accross interleaves
Interleave, duration : 42 ms (1.00 video frame)
Interleave, preload duration : 500 ms
Title : Original

Скриншоты

Предыдущие сезоны ВDrip HQ
Вы не можете начинать темы
Вы не можете отвечать на сообщения
Вы не можете редактировать свои сообщения
Вы не можете удалять свои сообщения
Вы не можете голосовать в опросах
Вы не можете прикреплять файлы к сообщениям
Вы можете скачивать файлы
Sitemap