Остаться в живых / Lost / Сезон: 2 / Серии: 1-24 (24) (Джек Бендер / Jack Bender, Стивен Уильямс / Stephen Williams) [2004, США, Приключение, Триллер, HDRip] DVO (Tycoon) 

Цитировать
Остаться в живых / Lost -Год выпуска: 2004
Страна: США
Жанр: Приключение, Триллер
Продолжительность: ~43мин.
Перевод: Профессиональный (двухголосый закадровый) Tycoon
Русские субтитры: вшитые, на корейские диалоги-Режиссёр: Джек Бендер / Jack Bender, Стивен Уильямс / Stephen Williams-В ролях: Мэттью Фокс, Эванджелин Лили, Нэвин Эндрюс, Терри О'Куинн, Доминик Монаган, Джош Холлоуэй, Мэгги Грэйс, Эмили де Рэйвин, Хорхе Гарсиа, Дэниел Дэй Ким, Ким Юн-чжин, Малкольм Дэвид Келли, Гарольд Перрино-Описание: Красавец-лайнер, совершающий полет из Сиднея в Лос-Анджелес, неожиданно терпит крушение. 48 пассажиров, оставшихся в живых, оказываются на пустынном острове посреди океана. Люди в панике.
Надежда быть найденными довольно призрачна. Поэтому остается только одно: собраться с силами и постараться выжить на острове, начиненном множеством опасностей…-Ссылка на предыдущие и альтернативные раздачи-Сэмпл-Качество: HDRip / BDRip
Формат: AVI
Видео кодек: XviD
Аудио кодек: MP3
Видео: 656x368 (1.78:1), 23.976 fps, XviD build 50 ~991 kbps avg, 0.17 bit/pixel
Аудио: 48 kHz, MPEG Layer 3, 2 ch, ~128.00 kbps avg

MI

Format : AVI
Format/Info : Audio Video Interleave
File size : 350 MiB
Duration : 43mn 17s
Overall bit rate : 1 129 Kbps
Writing application : VirtualDubMod 1.5.10.2 (build 2540/release)
Writing library : VirtualDubMod build 2540/release
Video
Format : MPEG-4 Visual
Format profile : Streaming Video@L1
Format settings, BVOP : Yes
Format settings, QPel : No
Format settings, GMC : No warppoints
Format settings, Matrix : Custom
Codec ID : XVID
Codec ID/Hint : XviD
Duration : 43mn 17s
Bit rate : 992 Kbps
Width : 656 pixels
Height : 368 pixels
Display aspect ratio : 16/9
Frame rate : 23.976 fps
Resolution : 24 bits
Colorimetry : 4:2:0
Scan type : Progressive
Bits/(Pixel*Frame) : 0.171
Stream size : 307 MiB (88%)
Writing library : XviD 1.2.1 (UTC 2008-12-04)
Audio
Format : MPEG Audio
Format version : Version 1
Format profile : Layer 3
Codec ID : 55
Codec ID/Hint : MP3
Duration : 43mn 17s
Bit rate mode : Constant
Bit rate : 128 Kbps
Minimum bit rate : 128 Kbps
Channel(s) : 2 channels
Sampling rate : 48.0 KHz
Resolution : 16 bits
Stream size : 39.6 MiB (11%)
Alignment : Aligned on interleaves
Interleave, duration : 42 ms (1.00 video frame)
Interleave, preload duration : 504 ms
Writing library : LAME3.98r
Encoding settings : CBR

Список серий

Эпизод 1 - (0:43:17) - Человек науки, человек веры / E01 - Man of Science, Man of Faith
Эпизод 2 - (0:42:31) - По течению / E02 - Adrift
Эпизод 3 - (0:43:16) - Ориентация / E03 - Orientation
Эпизод 4 - (0:43:15) - Все ненавидят Хьюго / E04 - Everybody Hates Hugo
Эпизод 5 - (0:42:30) - Поиски / E05 - ...And Found
Эпизод 6 - (0:42:54) - Через джунгли / E06 - Abandoned
Эпизод 7 - (0:46:18) - Другие 48 дней / E07 - The Other 48 Days
Эпизод 8 - (0:42:29) - Страшные ошибки / E08 - Collision
Эпизод 9 - (0:45:56) - Что сделала Кейт / E09 - What Kate Did
Эпизод 10 - (0:43:17) - 23-й псалом / E10 - The 23rd Psalm
Эпизод 11 - (0:43:14) - Охота / E11 - The Hunting Party
Эпизод 12 - (0:43:07) - Огонь и вода / E12 - Fire + Water
Эпизод 13 - (0:44:26) - Афера / E13 - The Long Con
Эпизод 14 - (0:44:44) - Один из них / E14 - One of Them
Эпизод 15 - (0:46:08) - Радость материнства / E15 - Maternity Leave
Эпизод 16 - (0:43:16) - Правда и только правда / E16 - The Whole Truth
Эпизод 17 - (0:43:16) - Взаперти / E17 - Lockdown
Эпизод 18 - (0:46:21) - Дэйв / E18 - Dave
Эпизод 19 - (0:43:16) - Спасите наши души / E19 - S.O.S.
Эпизод 20 - (0:43:18) - Обмен / E20 - Two for the Road
Эпизод 21 - (0:46:10) - Знак вопроса / E21 - Question Mark
Эпизод 22 - (0:45:19) - Три минуты / E22 - Three Minutes
Эпизод 23 - (0:43:18) - Живём вместе, умираем в одиночистве. Часть 1 / E23 - Live Together, Die Alone. Part 1
Эпизод 24 - (0:43:19) - Живём вместе, умираем в одиночистве. Часть 2 / E24 - Live Together, Die Alone. Part 2
Вы не можете начинать темы
Вы не можете отвечать на сообщения
Вы не можете редактировать свои сообщения
Вы не можете удалять свои сообщения
Вы не можете голосовать в опросах
Вы не можете прикреплять файлы к сообщениям
Вы можете скачивать файлы
Sitemap