Остаться в Живых (2 сезон, серии 1-24) / LOST [2005, США, BDRip HQ] [DD2.0+DD2.0] ОРТ+Tycoon 

Цитировать
Остаться в Живых / LOST / Сезон 2 (BDRip HQ)
Год выпуска: 2005
Страна: США
Жанр: приключения, мистика, драма
Продолжительность: ~43 мин./серия
Перевод 1: Профессиональный (полное дублирование) ОРТ
Перевод 2: Профессиональный (многоголосый закадровый) Tycoon
Русские субтитры: корейские и другие неанглийские диалоги переведены вшитыми субтитрами
Режиссер: Джек Бендер, Джей Джей Абрамс
В ролях: Мэтью Фокс, Эвангелина Лили, Доминик Монаган, Гарольд Перрино-мл., Джордж Гарсия, Малкольм Дэвид Келли, Фредерик Ленн, Джон Диксон, Майкл Артур и др.
Описание: Авиалайнер совершал полет над Тихим океаном и рухнул на один из его островов. С этой минуты остаться в живых станет целью для 48 уцелевших пассажиров. В экстремальной ситуации человек открывается таким, каким его раньше никто не знал. Кажется, все оказываются в общей беде. Но кто-то паникует, а кто-то обнаруживает в себе качества лидера, чтобы повести оставшихся за собой. Идти вперед - значит выжить. Поддаться общему настроению, допустить сомнения в свою душу - означает погубить не только себя, но и всех остальных. Положение уцелевших усугубляет таинственный остров. Жертвы авиакатастрофы должны победить все опасности, которыми это местечко в Тихом океане пытается их погубить. Остров расставляет для спутников опасные ловушки, тот кто не может справиться - погибает.
Доп. информация: Рип с BluRay исходника. Качество выше, чем у DVDRip и HDTVRip. Две звуковые дорожки Dolby Digital. Дубляж Первого канала и перевод студии "Тайкун" . Проигрывается на обычных бытовых плеерах (звуковые дорожки переключаются как у DVD). Размер рипа выбран из расчета 6 серий на диск (всего четыре диска)
Корейские и арабские диалоги переведены вшитыми субтитрами (точность до кадра).-Изготовление рипа и подготовка релиза - CEZAR ©-Качество: BDRip
Формат: AVI
Видео кодек: XviD
Аудио кодек: AC3
Видео: 720х400, ~1654 kbps, 23.976 fps, 0.24 bits/pixel
Аудио 1: 48000 Hz, DD 2.0 (L, R), 320 kbps, дубляж Первого канала
Аудио 2: 48000 Hz, DD 2.0 (L, R), 192 kbps, Студия "Tycoon"
Дополнительно (отдельной раздачей)
Аудио 3: 48000 Hz, DD 5.1 (L,C,R,sl,sr) + LFE, 448 kbps, Оригинал
Субтитры: Русские (srt), Английские (srt)
Примечание: Это Рип высокого качества для комфортного просмотра на бытовом плеере. Кого интересует меньший размер (и качество), могут скачать отсюда.

Список серий

Эпизод 01. Man of Science, Man of Faith / Человек науки, человек веры • [Джек]
Эпизод 02. Adrift / По течению • [Майкл]
Эпизод 03. Orientatio / Ориентирование • [Локк]
Эпизод 04. Everybody Hates Hugo / Все ненавидят Хёрли • [Херли]
Эпизод 05. ... And Found / ... И обретённое • [Сун]
Эпизод 06. Abandoned / Покинутая • [Шенон]
Эпизод 07. The Other 48 Days / Другие 48 дней • [нет]
Эпизод 08. Collision / Столкновение • [Ана Люсия]
Эпизод 09. What Kate Did / Что сделала Кейт • [Кейт]
Эпизод 10. The 23rd Psalm / 23-й псалом • [Эко]
Эпизод 11. The Hunting Party / Отряд охотников • [Джек]
Эпизод 12. Fire+Water / Огонь + вода • [Чарли]
Эпизод 13. The Long Con / Крупная афера • [Сойер]
Эпизод 14. One of Them / Один из них • [Саид]
Эпизод 15. Maternity Leave / Декретный отпуск • [Клер]
Эпизод 16. The Whole Truth / Вся правда • [Джин]
Эпизод 17. Lockdown / Взаперти • [Локк]
Эпизод 18. Dave / Дэйв • [Хёрли]
Эпизод 19. S.O.S. / C.O.C. • [Бернард/Роуз]
Эпизод 20. Two For The Road / Дорога для двоих • [Анна Люсия]
Эпизод 21. Question Mark / Знак вопроса • [Эко]
Эпизод 22. Three Minutes / Три минуты • [Майкл]
Эпизод 23. Live Together, Die Alone / Живём вместе, умираем поодиночке • [Десмонд] (Часть 1)
Эпизод 24. Live Together, Die Alone / Живём вместе, умираем поодиночке • [Десмонд] (Часть 2)

Скриншоты

Media Info

General
Complete name : G:\LOST\Season2\season2_BDrip\Lost.S02E05.BDRip.DD5.1+DD2.0.RUS(Dubl).cezar.avi
Format : AVI
Format/Info : Audio Video Interleave
File size : 663 MiB
Duration : 42mn 30s
Overall bit rate : 2 181 Kbps
Writing application : VirtualDubMod 1.5.10.2 (build 2540/release)
Writing library : VirtualDubMod build 2540/release
Video
Format : MPEG-4 Visual
Format profile : Streaming Video@L1
Format settings, BVOP : Yes
Format settings, QPel : No
Format settings, GMC : No warppoints
Format settings, Matrix : Default
Muxing mode : Packed bitstream
Codec ID : XVID
Codec ID/Hint : XviD
Duration : 42mn 30s
Bit rate : 1 654 Kbps
Width : 720 pixels
Height : 400 pixels
Display aspect ratio : 16/9
Frame rate : 23.976 fps
Resolution : 24 bits
Colorimetry : 4:2:0
Scan type : Progressive
Bits/(Pixel*Frame) : 0.240
Stream size : 503 MiB (76%)
Writing library : XviD 1.2.1 (UTC 2008-12-04)
Audio #1
Format : AC-3
Format/Info : Audio Coding 3
Format profile : Dolby Digital
Codec ID : 2000
Duration : 42mn 30s
Bit rate mode : Constant
Bit rate : 320 Kbps
Channel(s) : 2 channels
Channel positions : L R
Sampling rate : 48.0 KHz
Stream size : 97.3 MiB (15%)
Alignment : Split accross interleaves
Interleave, duration : 42 ms (1.00 video frame)
Interleave, preload duration : 500 ms
Title : OPT
Audio #2
Format : AC-3
Format/Info : Audio Coding 3
Codec ID : 2000
Duration : 42mn 30s
Bit rate mode : Constant
Bit rate : 192 Kbps
Channel(s) : 2 channels
Channel positions : L R
Sampling rate : 48.0 KHz
Stream size : 58.4 MiB (9%)
Alignment : Split accross interleaves
Interleave, duration : 42 ms (1.00 video frame)
Interleave, preload duration : 500 ms
Title : Tycoon
Другие сезоны ВDrip HQ с двумя звуковыми дорожками
Вы не можете начинать темы
Вы не можете отвечать на сообщения
Вы не можете редактировать свои сообщения
Вы не можете удалять свои сообщения
Вы не можете голосовать в опросах
Вы не можете прикреплять файлы к сообщениям
Вы можете скачивать файлы
Sitemap