(Heavy Metal) [CD] The Kings Machine - ...A State Of Mind (Lance King Project) - 1995, FLAC (image+.cue), lossless 

Цитировать
The Kings Machine
...A State Of Mind (Lance King Project)



Жанр: Heavy Metal
Носитель: CD
Страна-производитель диска (релиза): United States
Год издания: 1995
Издатель (лейбл): Nightmare Records
Номер по каталогу: 19964
Страна исполнителя (группы): United States
Аудиокодек: FLAC (*.flac)
Тип рипа: image+.cue
Битрейт аудио: lossless
Продолжительность: 45:49
Источник (релизер): My rip
Наличие сканов в содержимом раздачи: да

1995 - ...A State Of Mind (45:49)

01. Time for a Change
02. Momma (Hard to Say Goodbye)
03. Fear
04. Crave the Dirt
05. Sailing Through the Doorway
06. Sabertooth Youth
07. Self Destruction
08. Keep on Running (for My life)
09. 21-Gun Salute
10. Money

Лог создания рипа

Exact Audio Copy V1.3 from 2. September 2016
EAC extraction logfile from 7. October 2018, 4:33
The Kings Machine / ...A State Of Mind
Used drive : _NEC DVD_RW ND-4571A Adapter: 1 ID: 0
Read mode : SecureUtilize accurate stream : YesDefeat audio cache : YesMake use of C2 pointers : No
Read offset correction : 48Overread into Lead-In and Lead-Out : NoFill up missing offset samples with silence : YesDelete leading and trailing silent blocks : NoNull samples used in CRC calculations : YesUsed interface : Native Win32 interface for Win NT & 2000
Used output format : Internal WAV RoutinesSample format : 44.100 Hz; 16 Bit; Stereo
TOC of the extracted CD
Track | Start | Length | Start sector | End sector --------------------------------------------------------- 1 | 0:00.00 | 3:39.22 | 0 | 16446 2 | 3:39.22 | 5:17.20 | 16447 | 40241 3 | 8:56.42 | 5:00.25 | 40242 | 62766 4 | 13:56.67 | 4:23.15 | 62767 | 82506 5 | 18:20.07 | 5:54.00 | 82507 | 109056 6 | 24:14.07 | 3:59.28 | 109057 | 127009 7 | 28:13.35 | 4:36.42 | 127010 | 147751 8 | 32:50.02 | 3:59.00 | 147752 | 165676 9 | 36:49.02 | 3:21.50 | 165677 | 180801 10 | 40:10.52 | 5:38.18 | 180802 | 206169
Range status and errors
Selected range
Filename D:\EAC\vknish\The Kings Machine - ...A State Of Mind.wav
Peak level 100.0 % Extraction speed 4.9 X Range quality 100.0 % Test CRC 3B4889F5 Copy CRC 3B4889F5 Copy OK
No errors occurred
AccurateRip summary
Track 1 not present in databaseTrack 2 not present in databaseTrack 3 not present in databaseTrack 4 not present in databaseTrack 5 not present in databaseTrack 6 not present in databaseTrack 7 not present in databaseTrack 8 not present in databaseTrack 9 not present in databaseTrack 10 not present in database
None of the tracks are present in the AccurateRip database
End of status report
---- CUETools DB Plugin V2.1.6
[CTDB TOCID: uLoQOSXPCMfoyoUs4gJZYmCINqE-] disk not present in databaseSubmit result: uLoQOSXPCMfoyoUs4gJZYmCINqE- has been uploaded
==== Log checksum B3784A245B0449A21632F1AEFB388DD9D023A87ECD48DDF6DB1AF62684A76B33 ====

Состав

Brian Hollenbeck - Bass, Keyboards, Vocals
Brian Waterman - Drums, Percussion, Vocals (backing)
Dave Barilla - Guitars (lead, rhythm & acoustic)
Lance King - Vocals (lead & backing), Samples
Вы не можете начинать темы
Вы не можете отвечать на сообщения
Вы не можете редактировать свои сообщения
Вы не можете удалять свои сообщения
Вы не можете голосовать в опросах
Вы не можете прикреплять файлы к сообщениям
Вы можете скачивать файлы
!ВНИМАНИЕ!

Сайт не предоставляет электронные версии произведений, а занимается лишь коллекционированием и каталогизацией ссылок, присылаемых и публикуемых на форуме нашими читателями. Если вы являетесь правообладателем какого-либо представленного материала и не желаете, чтобы ссылка на него находилась в нашем каталоге, свяжитесь с нами, и мы незамедлительно удалим ее. Файлы для обмена на трекере предоставлены пользователями сайта, и администрация не несет ответственности за их содержание. Просьба не заливать файлы, защищенные авторскими правами, а также файлы нелегального содержания!

Искали программы, игры, дополнения, музыка mp3, аниме, аудио книги, журналы? Добро пожаловать на свободный торрент трекер Torrents, у нас можно скачать бесплатно, без смс и регистрации и прочих ограничений лучшие, отборные сборки программ, игр. Скачать торрентом не составит труда даже не опытному пользователю. Раздачи ежедневно обновляются, только лучшие и качественные раздачи, подробные описания и скриншоты. Огромная коллекция программ для работы со звуком, графикой, дизайном, а так же множество плагинов и инструментов к ним с подробной инструкцией и рекомендациями. Прошивки для навигаторов, карты. Разнообразные игры, для Windows, Linux. В коллекцие есть и старые игры любых жанров, Rpg, Action, Shooter, strategy Множество дополнений, модификаций, сценариев для популярных игр в жанре экш, рпг, гонки, стратегии, логические игры. Множество аддонов и сценариев для Microsoft Flight Simulator Большая коллекция книг, учебников. Если нет возможности купить печатное издание - смело скачивайте цифровую версию книги или, быть может, журнала. Не любите читать - можно загрузить бесплатно аудикнигу. Для веб дизайнеров и программистов так же найдется множество специализированного софта, таких как: редакторы с подсветкой, среды программирования, компоненты, системы управления базами данных, разнообразные скрипты и шаблоны. Не так давно у нас появился материал для автолюбителей и владельцев мото - оригинальные и неоригинальные каталоги запчастей, книги и журналы по ремонту и обслуживанию, видеоуроки, статьи по чип тюнингу, прошивкам. Процедура получения контента элементарная, достаточно просто скачать торрент файл и добавить его в загрузку в вашем торрент клиенте. Если у вас нет специального торрент клиента, вы можете его скачать у нас.

Sitemap