[iPad] Альфа / Alpha (Альберт Хьюз / Albert Hughes ) [2018, США, Драма, приключения, семейный, WEB-DLRip, SD (576p)] DUB + Original + sub (rus, eng, ukr) 

Цитировать
Альфа / Alpha
«История дружбы, изменившей мир»
6.726 / 10 7.00 / 10
- Год выпуска: 2018
Страна: США
Жанр: Драма, приключения, семейный
Продолжительность: 01:36:30
Перевод: Дублированный (iTunes)
Оригинальная аудиодорожка: Есть
Cубтитры: Русские форсированные, Русские, Английские, Украинские
Режиссёр: Альберт Хьюз
Сценарий: Daniele Sebastian Wiedenhaupt, Альберт Хьюз
Продюсер: Эндрю Рона, Марк Бакши, Стюарт М. Бессер
Оператор: Мартин Гшлахт
Композитор: Джозеф С. ДеБези, Майкл Стернс
Художник: Джон Виллетт, Крис Фармер, Анджела О’Салливан
Монтаж: Сандра Грановски
В ролях: Коди Смит-МакФи, Йоуханнес Хёйкьюр Йоуханнессон, Марцин Ковальчик, Йенс Хультен, Наташа Мальте, Спенсер Богерт, Мерседес Де Ла Зерда, Леонор Варела, Морган Фриман, Прия Раджаратнам
Бюджет: $51 000 000
Сборы в США: $35 706 919
Сборы в мире: + $43 755 315 = $79 462 234
Сборы в России: $9 443 420
Мировая премьера: 16 августа 2018
Премьера (РФ): 23 августа 2018, «WDSSPR»
Цифровой релиз: 29 октября 2018, «Sony Pictures Home Entertainment»
Описание: 20 000 лет назад Земля была холодным и неуютным местом, в котором смерть подстерегала человека на каждом шагу, а жизнь зависела от того, удалось загнать добычу или нет. Молодой охотник из племени, которое по уровню жизни и культуры было одним из самых развитых на планете, оказывается один на один с враждебным миром, полным смертельных опасностей. Ему предстоит взглянуть в лицо своим страхам и найти дорогу домой. И, возможно, от исхода его путешествия зависит судьба всего человечества.-Качество исходника: WEB-DL 1080p (BlueBird)
Качество: WEB-DLRip
Тип: SD (576p)
Контейнер: M4V
Видео: H.264, 1024x432, 2.40:1, 2 200 Kbps, 23.976 fps
Аудио 1: Русский/Дублированный (iTunes), AAC / 2.0 / 128 Kbps / 48.0 KHz
Аудио 2: Английский/Оригинальная дорожка , AAC / 2.0 / 128 Kbps / 48.0 KHz
Аудио 3: Украинский/Дублированный (iTunes), AAC / 2.0 / 128 Kbps / 48.0 KHz
Субтитры 1: Русские форсированные
Субтитры 2: Русские полные
Субтитры 3: Английские полные
Субтитры 4: Украинские полные
-

iTunes Meta Tags

Sort Name: Alpha
XID: Apple:vendor_id:2018-934956
contentID: 1420240763
Copyright: © 2018 Columbia Pictures Industries, Inc. All Rights Reserved
Screenwriters: Daniele Sebastian Wiedenhaupt, Альберт Хьюз
Producers: Эндрю Рона, Марк Бакши, Стюарт М. Бессер
Director: Альберт Хьюз
Cast: Коди Смит-МакФи, Наташа Мальте, Леонор Варела, Йоуханнес Хёйкьюр Йоуханнессон, Йенс Хультен, Мерседес Де Ла Зерда, Прия Раджаратнам, Спенсер Богерт, Патрик Флэнеган, Майкл Круз Даль
Studio: Columbia Pictures; Studio 8
Rating: 4
Long Description: 20 000 лет назад Земля была холодным и неуютным местом, в котором смерть подстерегала человека на каждом шагу, а жизнь зависела от того, удалось загнать добычу или нет. Молодой охотник из племени, которое по уровню жизни и культуры было одним из самых развитых на планете, оказывается один на один с враждебным миром, полным смертельных опасностей. Ему предстоит взглянуть в лицо своим страхам и найти дорогу домой. И, возможно, от исхода его путешествия зависит судьба всего человечества.
Description: 20 000 лет назад Земля была холодным и неуютным местом, в котором смерть подстерегала человека на каждом шагу, а жизнь зависела от того, удалось загнать добычу или нет.
Release Date: 2018-09-13T07:00:00Z
Genre: Action & Adventure
Artist: Albert Hughes
Name: Alpha

MediaInfo

General
Complete name : /Users/imac/HandBrake/Alpha.(SD).(pk).m4v
Format : MPEG-4
Codec ID : M4V
File size : 1.74 GiB
Duration : 1h 36mn
Overall bit rate mode : Variable
Overall bit rate : 2 583 Kbps
Movie name : Alpha
Performer : Albert Hughes
Director : Альберт Хьюз
Actor : Коди Смит-МакФи / Наташа Мальте / Леонор Варела / Йоуханнес Хёйкьюр Йоуханнессон / Йенс Хультен / Мерседес Де Ла Зерда / Прия Раджаратнам / Спенсер Богерт / Патрик Флэнеган / Майкл Круз Даль
Screenplay by : Daniele Sebastian Wiedenhaupt / Альберт Хьюз
Producer : Эндрю Рона / Марк Бакши / Стюарт М. Бессер
Production studio : Columbia Pictures; Studio 8
Genre : Action & Adventure
ContentType : Short Film
Description : 20 000 лет назад Земля была холодным и неуютным местом, в котором смерть подстерегала человека на каждом шагу, а жизнь зависела от того, удалось загнать добычу или нет.
Recorded date : UTC 2018-09-13 07:00:00
Encoded date : UTC 2018-10-27 11:15:43
Tagged date : UTC 2018-10-27 11:22:00
Copyright : © 2018 Columbia Pictures Industries, Inc. All Rights Reserved
Cover : Yes
Rating : None
Title/Sort : Alpha
LongDescription : 20 000 лет назад Земля была холодным и неуютным местом, в котором смерть подстерегала человека на каждом шагу, а жизнь зависела от того, удалось загнать добычу или нет. Молодой охотник из племени, которое по уровню жизни и культуры было одним из самых развитых на планете, оказывается один на один с враждебным миром, полным смертельных опасностей. Ему предстоит взглянуть в лицо своим страхам и найти дорогу домой. И, возможно, от исхода его путешествия зависит судьба всего человечества.
AppleStoreCatalogID : 1420240763
Vendor : Apple:vendor_id:2018-934956
ContentRating : mpaa|PG-13|300|
Video #1
ID : 1
Format : AVC
Format/Info : Advanced Video Codec
Format profile : High@L3.1
Format settings, CABAC : Yes
Format settings, ReFrames : 9 frames
Codec ID : avc1
Codec ID/Info : Advanced Video Coding
Duration : 1h 36mn
Source duration : 1h 36mn
Bit rate : 2 200 Kbps
Width : 1 024 pixels
Height : 432 pixels
Display aspect ratio : 2.40:1
Frame rate mode : Variable
Frame rate : 23.976 fps
Minimum frame rate : 23.974 fps
Maximum frame rate : 23.981 fps
Color space : YUV
Chroma subsampling : 4:2:0
Bit depth : 8 bits
Scan type : Progressive
Bits/(Pixel*Frame) : 0.207
Stream size : 1.48 GiB (85%)
Source stream size : 1.48 GiB (85%)
Title : Main Program
Writing library : x264 core 155 r2901 7d0ff22
Encoding settings : cabac=1 / ref=9 / deblock=1:0:0 / analyse=0x3:0x113 / me=umh / subme=9 / psy=1 / psy_rd=1.00:0.00 / mixed_ref=1 / me_range=32 / chroma_me=1 / trellis=1 / 8x8dct=1 / cqm=0 / deadzone=21,11 / fast_pskip=1 / chroma_qp_offset=-2 / threads=13 / lookahead_threads=1 / sliced_threads=0 / nr=0 / decimate=1 / interlaced=0 / bluray_compat=0 / constrained_intra=0 / bframes=6 / b_pyramid=2 / b_adapt=2 / b_bias=0 / direct=1 / weightb=1 / open_gop=0 / weightp=2 / keyint=240 / keyint_min=24 / scenecut=40 / intra_refresh=0 / rc_lookahead=40 / rc=2pass / mbtree=1 / bitrate=2200 / ratetol=1.0 / qcomp=0.60 / qpmin=0 / qpmax=69 / qpstep=4 / cplxblur=20.0 / qblur=0.5 / ip_ratio=1.40 / aq=1:1.00
Language : English
Encoded date : UTC 2018-10-27 11:15:43
Tagged date : UTC 2018-10-27 11:15:49
Color range : Limited
Color primaries : BT.709
Transfer characteristics : BT.709
Matrix coefficients : BT.709
Video #2
ID : 10
Format : JPEG
Codec ID : jpeg
Duration : 1h 36mn
Bit rate mode : Variable
Bit rate : 762 bps
Width : 640 pixels
Height : 270 pixels
Display aspect ratio : 2.40:1
Frame rate mode : Variable
Frame rate : 0.003 fps
Minimum frame rate : 0.002 fps
Maximum frame rate : 0.005 fps
Color space : YUV
Chroma subsampling : 4:2:0
Bit depth : 8 bits
Compression mode : Lossy
Bits/(Pixel*Frame) : 1.470
Stream size : 496 KiB (0%)
Title : Chapter Images
Language : English
Encoded date : UTC 2018-10-27 11:15:56
Tagged date : UTC 2018-10-27 11:15:56
Audio #1
ID : 2
Format : AAC
Format/Info : Advanced Audio Codec
Format profile : LC
Codec ID : 40
Duration : 1h 36mn
Source duration : 1h 36mn
Bit rate mode : Variable
Bit rate : 126 Kbps
Maximum bit rate : 215 Kbps
Channel(s) : 2 channels
Channel positions : Front: L R
Sampling rate : 48.0 KHz
Compression mode : Lossy
Stream size : 86.7 MiB (5%)
Source stream size : 86.7 MiB (5%)
Title : Russian Stereo
Language : Russian
Encoded date : UTC 2018-10-27 11:15:43
Tagged date : UTC 2018-10-27 11:15:52
Audio #2
ID : 3
Format : AAC
Format/Info : Advanced Audio Codec
Format profile : LC
Codec ID : 40
Duration : 1h 36mn
Source duration : 1h 36mn
Bit rate mode : Variable
Bit rate : 126 Kbps
Maximum bit rate : 212 Kbps
Channel(s) : 2 channels
Channel positions : Front: L R
Sampling rate : 48.0 KHz
Compression mode : Lossy
Stream size : 86.7 MiB (5%)
Source stream size : 86.7 MiB (5%)
Title : English Stereo
Language : English
Encoded date : UTC 2018-10-27 11:15:43
Tagged date : UTC 2018-10-27 11:15:52
Audio #3
ID : 4
Format : AAC
Format/Info : Advanced Audio Codec
Format profile : LC
Codec ID : 40
Duration : 1h 36mn
Source duration : 1h 36mn
Bit rate mode : Variable
Bit rate : 126 Kbps
Maximum bit rate : 234 Kbps
Channel(s) : 2 channels
Channel positions : Front: L R
Sampling rate : 48.0 KHz
Compression mode : Lossy
Stream size : 86.9 MiB (5%)
Source stream size : 86.9 MiB (5%)
Title : Ukrainian Stereo
Language : Ukrainian
Encoded date : UTC 2018-10-27 11:15:43
Tagged date : UTC 2018-10-27 11:15:52
Text #1
ID : 5
Format : Timed Text
Muxing mode : sbtl
Codec ID : tx3g
Duration : 1h 29mn
Bit rate mode : Variable
Bit rate : 0 bps
Stream size : 93.0 Bytes (0%)
Title : Russian forced
Language : Russian
Encoded date : UTC 2018-10-27 11:15:44
Tagged date : UTC 2018-10-27 11:15:44
Text #2
ID : 6
Format : Timed Text
Muxing mode : sbtl
Codec ID : tx3g
Duration : 1h 29mn
Bit rate mode : Variable
Bit rate : 12 bps
Stream size : 8.18 KiB (0%)
Title : Russian full
Language : Russian
Encoded date : UTC 2018-10-27 11:15:44
Tagged date : UTC 2018-10-27 11:15:44
Text #3
ID : 7
Format : Timed Text
Muxing mode : sbtl
Codec ID : tx3g
Duration : 1h 27mn
Bit rate mode : Variable
Bit rate : 8 bps
Stream size : 5.11 KiB (0%)
Title : English full
Language : English
Encoded date : UTC 2018-10-27 11:15:44
Tagged date : UTC 2018-10-27 11:15:44
Text #4
ID : 8
Format : Timed Text
Muxing mode : sbtl
Codec ID : tx3g
Duration : 1h 27mn
Bit rate mode : Variable
Bit rate : 14 bps
Stream size : 8.84 KiB (0%)
Title : Ukrainian full
Language : Ukrainian
Encoded date : UTC 2018-10-27 11:15:44
Tagged date : UTC 2018-10-27 11:15:44
Menu #1
00:00:00.000 : 1
00:07:43.713 : 2
00:10:56.071 : 3
00:16:56.639 : 4
00:21:43.299 : 5
00:25:54.967 : 6
00:32:36.618 : 7
00:38:19.251 : 8
00:42:37.383 : 9
00:47:54.323 : 10
00:54:07.404 : 11
00:59:27.222 : 12
01:07:08.975 : 13
01:14:08.727 : 14
01:18:56.264 : 15
01:25:42.294 : 16
Menu #2
ID : 9
Codec ID : text
Duration : 1h 36mn
Language : English
Encoded date : UTC 2018-10-27 11:15:52
Tagged date : UTC 2018-10-27 11:15:52
00:00:00.000 : 1
00:07:43.713 : 2
00:10:56.071 : 3
00:16:56.639 : 4
00:21:43.299 : 5
00:25:54.967 : 6
00:32:36.618 : 7
00:38:19.251 : 8
00:42:37.383 : 9
00:47:54.323 : 10
00:54:07.404 : 11
00:59:27.222 : 12
01:07:08.975 : 13
01:14:08.727 : 14
01:18:56.264 : 15
01:25:42.294 : 16
Bit rate mode : VBR

x264 лог

x264 [info]: frame I:1046  Avg QP:11.72  size: 85239
x264 [info]: frame P:34822 Avg QP:14.34  size: 24269
x264 [info]: frame B:102961 Avg QP:17.41  size:  6358
x264 [info]: consecutive B-frames:  2.1%  3.4%  5.2% 62.6%  8.9% 13.4%  4.3%
x264 [info]: mb I  I16..4: 13.0% 59.4% 27.6%
x264 [info]: mb P  I16..4:  1.4%  7.5%  1.9%  P16..4: 32.7% 26.5% 17.3%  0.0%  0.0%    skip:12.6%
x264 [info]: mb B  I16..4:  0.1%  1.3%  0.5%  B16..8: 31.3% 10.9%  3.3%  direct: 5.6%  skip:47.0%  L0:42.6% L1:42.8% BI:14.7%
x264 [info]: 8x8 transform intra:67.3% inter:61.9%
x264 [info]: coded y,uvDC,uvAC intra: 84.6% 75.6% 51.4% inter: 26.9% 18.1% 2.8%
x264 [info]: i16 v,h,dc,p: 35% 13%  8% 44%
x264 [info]: i8 v,h,dc,ddl,ddr,vr,hd,vl,hu:  8%  9%  7%  9% 13% 12% 15% 12% 15%
x264 [info]: i4 v,h,dc,ddl,ddr,vr,hd,vl,hu:  7%  8%  4%  9% 15% 13% 15% 12% 16%
x264 [info]: i8c dc,h,v,p: 43% 28% 16% 14%
x264 [info]: Weighted P-Frames: Y:10.6% UV:5.1%
x264 [info]: ref P L0: 50.0% 10.3% 15.5%  6.6%  6.0%  4.1%  3.3%  1.9%  1.9%  0.3%  0.0%
x264 [info]: ref B L0: 72.7% 11.4%  6.0%  3.2%  2.8%  2.3%  1.3%  0.5%
x264 [info]: ref B L1: 94.6%  5.4%
x264 [info]: kb/s:2195.25

Скриншоты

-

Релиз подготовлен для просмотра на Apple TV, iPad, iPhone, iPod Touch.
Для просмотра данного релиза на компьютере с ОС Windows рекомендуется использовать VLC media player
Вы не можете начинать темы
Вы не можете отвечать на сообщения
Вы не можете редактировать свои сообщения
Вы не можете удалять свои сообщения
Вы не можете голосовать в опросах
Вы не можете прикреплять файлы к сообщениям
Вы можете скачивать файлы
!ВНИМАНИЕ!

Сайт не предоставляет электронные версии произведений, а занимается лишь коллекционированием и каталогизацией ссылок, присылаемых и публикуемых на форуме нашими читателями. Если вы являетесь правообладателем какого-либо представленного материала и не желаете, чтобы ссылка на него находилась в нашем каталоге, свяжитесь с нами, и мы незамедлительно удалим ее. Файлы для обмена на трекере предоставлены пользователями сайта, и администрация не несет ответственности за их содержание. Просьба не заливать файлы, защищенные авторскими правами, а также файлы нелегального содержания!

Искали программы, игры, дополнения, музыка mp3, аниме, аудио книги, журналы? Добро пожаловать на свободный торрент трекер Torrents, у нас можно скачать бесплатно, без смс и регистрации и прочих ограничений лучшие, отборные сборки программ, игр. Скачать торрентом не составит труда даже не опытному пользователю. Раздачи ежедневно обновляются, только лучшие и качественные раздачи, подробные описания и скриншоты. Огромная коллекция программ для работы со звуком, графикой, дизайном, а так же множество плагинов и инструментов к ним с подробной инструкцией и рекомендациями. Прошивки для навигаторов, карты. Разнообразные игры, для Windows, Linux. В коллекцие есть и старые игры любых жанров, Rpg, Action, Shooter, strategy Множество дополнений, модификаций, сценариев для популярных игр в жанре экш, рпг, гонки, стратегии, логические игры. Множество аддонов и сценариев для Microsoft Flight Simulator Большая коллекция книг, учебников. Если нет возможности купить печатное издание - смело скачивайте цифровую версию книги или, быть может, журнала. Не любите читать - можно загрузить бесплатно аудикнигу. Для веб дизайнеров и программистов так же найдется множество специализированного софта, таких как: редакторы с подсветкой, среды программирования, компоненты, системы управления базами данных, разнообразные скрипты и шаблоны. Не так давно у нас появился материал для автолюбителей и владельцев мото - оригинальные и неоригинальные каталоги запчастей, книги и журналы по ремонту и обслуживанию, видеоуроки, статьи по чип тюнингу, прошивкам. Процедура получения контента элементарная, достаточно просто скачать торрент файл и добавить его в загрузку в вашем торрент клиенте. Если у вас нет специального торрент клиента, вы можете его скачать у нас.

Sitemap