Битва за огонь / Борьба за огонь / La guerre du feu / The War of Fire (Жан-Жак Анно / Jean-Jacques Annaud) [1981, Канада, Франция, приключения, драма, BDRemux 1080p] Original + Sub Rus 

Цитировать
Битва за огонь / Борьба за огонь / La guerre du feu / The War of Fire
Страна: Канада, Франция
Студия: International Cinema Corporation (ICC)
Жанр: приключения, драма
Год выпуска: 1981
Продолжительность: 01:40:33
Перевод: Субтитры
Субтитры: русские на надписи
Оригинальная аудиодорожка: неандертальский
Режиссер: Жан-Жак Анно / Jean-Jacques Annaud
В ролях: Эверет МакГилл, Рон Перлман, Николас Кади ,Рей Дон, Чон Гэри, Шварц Насир, Эль Кади, Франк-Оливье Бонне, Жан-Мишель Киндт, Курт Шигль, Брайан Гилл...
Описание: Действие происходит в эпоху палеолита. Погас огонь, который поддерживали на протяжении долгого времени. Люди, которые не умеют разжигать огонь, должны найти его, ведь без огня невозможна жизнь племени. Чтобы завоевать сердце возлюбленной, главный герой отправляется на поиски огня. Путь его полон опасностей.
Доп. информация: В фильме вообще не звучит членораздельная речь, персонажи объясняются звуками примитивного языка или жестами.
  • Премия Сезар за лучший фильм и лучшую режиссуру (1982).
  • Кинопремия Оскар за лучший грим (1983).
  • Премия Джини (1983) в пяти категориях
Релиз:
Сэмпл: http://sendfile.su/1359655
Тип релиза: BDRemux 1080p
Контейнер: MKV
Видео: MPEG-4 AVC Video / 23963 kbps / 1920x1080p / 24 fps / 16:9 / High Profile 4.1
Аудио: DTS-HD High-Res Audio / 5.1 / 48 kHz / 3018 kbps / 16-bit (DTS Core: 5.1 /48 kHz / 1509 kbps / 16-bit)
Формат субтитров: softsub (SRT)

MediaInfo

General
Unique ID : 204881780540245889504769773985496019718 (0x9A22CBADC3AB9489BD1D82F99E53B306)
Complete name : D:\HD\La.guerre.du.feu.1981.BDRemux.1080p-RUTRACKER.mkv
Format : Matroska
Format version : Version 4 / Version 2
File size : 19.0 GiB
Duration : 1 h 40 min
Overall bit rate mode : Variable
Overall bit rate : 27.0 Mb/s
Movie name : La guerre du feu 1981 BDRemux 1080p - RUTRACKER
Encoded date : UTC 2017-09-03 19:52:36
Writing application : mkvmerge v15.0.0 ('Duel with the Devil') 64-bit
Writing library : libebml v1.3.5 + libmatroska v1.4.5
Cover : Yes
Attachments : cover.jpg
Video
ID : 1
Format : AVC
Format/Info : Advanced Video Codec
Format profile : High@L4.1
Format settings, CABAC : Yes
Format settings, RefFrames : 4 frames
Format settings, GOP : M=3, N=24
Codec ID : V_MPEG4/ISO/AVC
Duration : 1 h 40 min
Bit rate mode : Variable
Bit rate : 24.0 Mb/s
Maximum bit rate : 32.0 Mb/s
Width : 1 920 pixels
Height : 1 080 pixels
Display aspect ratio : 16:9
Frame rate mode : Constant
Frame rate : 24.000 FPS
Standard : NTSC
Color space : YUV
Chroma subsampling : 4:2:0
Bit depth : 8 bits
Scan type : Progressive
Bits/(Pixel*Frame) : 0.481
Stream size : 16.8 GiB (89%)
Language : French
Default : Yes
Forced : No
Color range : Limited
Color primaries : BT.709
Transfer characteristics : BT.709
Matrix coefficients : BT.709
Audio
ID : 2
Format : DTS
Format/Info : Digital Theater Systems
Format profile : HRA / Core
Mode : 16
Format settings, Endianness : Big
Codec ID : A_DTS
Duration : 1 h 40 min
Bit rate mode : Constant
Bit rate : 3 018 kb/s / 1 509 kb/s
Channel(s) : 6 channels
Channel positions : Front: L C R, Side: L R, LFE
Sampling rate : 48.0 kHz
Frame rate : 93.750 FPS (512 SPF)
Bit depth : 16 bits / 24 bits
Compression mode : Lossy
Stream size : 2.12 GiB (11%)
Default : Yes
Forced : No
Text
ID : 3
Format : UTF-8
Codec ID : S_TEXT/UTF8
Codec ID/Info : UTF-8 Plain Text
Duration : 49 s 592 ms
Bit rate : 177 b/s
Count of elements : 13
Stream size : 1.08 KiB (0%)
Title : (надписи)
Language : Russian
Default : Yes
Forced : No
Menu
00:00:00.000 : en:00:00:00.000
00:09:25.667 : en:00:09:25.667
00:14:56.667 : en:00:14:56.667
00:23:17.833 : en:00:23:17.833
00:31:17.875 : en:00:31:17.875
00:38:48.458 : en:00:38:48.458
00:45:19.042 : en:00:45:19.042
00:54:28.333 : en:00:54:28.333
01:02:59.417 : en:01:02:59.417
01:11:17.208 : en:01:11:17.208
01:20:13.833 : en:01:20:13.833
01:29:32.042 : en:01:29:32.042

Скриншоты

Вы не можете начинать темы
Вы не можете отвечать на сообщения
Вы не можете редактировать свои сообщения
Вы не можете удалять свои сообщения
Вы не можете голосовать в опросах
Вы не можете прикреплять файлы к сообщениям
Вы можете скачивать файлы
Sitemap