[Детская] Заходер Борис - Сказки Бориса Заходера (Мелодия-детям) [Клара Румянова, Борис Левинсон, Мария Бабанова, 2010 г., lossless, FLAC] 

Цитировать
Сказки Бориса Заходера (Мелодия-детям)
Год записи: 1968, 1971 гг.
Год выпуска: 2010 г.
Фамилия автора: Заходер
Имя автора: Борис
Исполнитель: Клара Румянова, Борис Левинсон, Мария Бабанова
Жанр: Сказка
Издательство: Мелодия ©
Оцифровано: 2010
Тип аудиокниги: аудиокнига
Аудио кодек: FLAC
Битрейт аудио: lossless
Время звучания: 66:30

Описание:

Клара Румянова, Борис Левинсон, Мария Бабанова
Сказки Бориса Заходера
Аудиозапись на CD
Отшельник и Роза
Музыка Г. Гладкова
Действующие лица и исполнители:
Рак-отшельник – Б. Левинсон
Морская Роза – М. Бабанова
Летучая Рыбка – Г. Новожилова
Дельфин – М. Погоржельский
Морской Конек, Дядя Краб, Моллюск – Е.Весник
Ансамбль кинематографии, дирижер Д. Штильман, квартет «ВИО – 66»
Запись 1968 г.
Русачок
Серая звездочка
Читает Клара Румянова
Запись 1971 г.
Номер диска в каталоге: MEL CD 50 01719

XLD Log

X Lossless Decoder version 20101212 (126.2)
XLD extraction logfile from 2011-02-12 01:02:35 +0300
Различные исполнители / Сказки Бориса Заходера
Used drive : PIONEER DVD-RW DVR-K06A (revision Q631)
Ripper mode : CDParanoia III 10.2
Disable audio cache : OK for the drive with a cache less than 2750KiB
Make use of C2 pointers : NO
Read offset correction : 48
Max retry count : 100
Gap status : Analyzed, Appended
TOC of the extracted CD
Track | Start | Length | Start sector | End sector
---------------------------------------------------------
1 | 00:00:00 | 05:45:25 | 0 | 25899
2 | 05:45:25 | 06:00:46 | 25900 | 52945
3 | 11:45:71 | 05:56:06 | 52946 | 79651
4 | 17:42:02 | 06:02:37 | 79652 | 106838
5 | 23:44:39 | 07:33:06 | 106839 | 140819
6 | 31:17:45 | 04:21:62 | 140820 | 160456
7 | 35:39:32 | 03:57:03 | 160457 | 178234
8 | 39:36:35 | 03:50:67 | 178235 | 195551
9 | 43:27:27 | 04:10:70 | 195552 | 214371
10 | 47:38:22 | 03:38:57 | 214372 | 230778
11 | 51:17:04 | 03:47:03 | 230779 | 247806
12 | 55:04:07 | 03:47:49 | 247807 | 264880
13 | 58:51:56 | 04:05:05 | 264881 | 283260
14 | 62:56:61 | 03:31:42 | 283261 | 299127
AccurateRip Summary
Disc not found in AccurateRip DB.
All Tracks
Filename : /Volumes/Медиа/torrents/Сказки Бориса Заходера/Сказки Бориса Заходера.flac
CRC32 hash (test run) : 5A04BEB4
CRC32 hash : 5A04BEB4
CRC32 hash (skip zero) : 70298880
Statistics
Read error : 0
Skipped (treated as error) : 0
Edge jitter error (maybe fixed) : 0
Atom jitter error (maybe fixed) : 0
Drift error (maybe fixed) : 0
Dropped bytes error (maybe fixed) : 0
Duplicated bytes error (maybe fixed) : 0
Inconsistency in error sectors : 0
Track 01
Pre-gap length : 00:02:00
CRC32 hash (test run) : 78EA5AF3
CRC32 hash : 78EA5AF3
CRC32 hash (skip zero) : 6A470D6B
AccurateRip signature : 0362A1CB
->Track not present in AccurateRip database.
Statistics
Read error : 0
Skipped (treated as error) : 0
Edge jitter error (maybe fixed) : 0
Atom jitter error (maybe fixed) : 0
Drift error (maybe fixed) : 0
Dropped bytes error (maybe fixed) : 0
Duplicated bytes error (maybe fixed) : 0
Inconsistency in error sectors : 0
Track 02
CRC32 hash (test run) : 0712D103
CRC32 hash : 0712D103
CRC32 hash (skip zero) : 106033F5
AccurateRip signature : 92D5E09E
->Track not present in AccurateRip database.
Statistics
Read error : 0
Skipped (treated as error) : 0
Edge jitter error (maybe fixed) : 0
Atom jitter error (maybe fixed) : 0
Drift error (maybe fixed) : 0
Dropped bytes error (maybe fixed) : 0
Duplicated bytes error (maybe fixed) : 0
Inconsistency in error sectors : 0
Track 03
CRC32 hash (test run) : 7E1E8FCE
CRC32 hash : 7E1E8FCE
CRC32 hash (skip zero) : EB69B4D6
AccurateRip signature : D2237F93
->Track not present in AccurateRip database.
Statistics
Read error : 0
Skipped (treated as error) : 0
Edge jitter error (maybe fixed) : 0
Atom jitter error (maybe fixed) : 0
Drift error (maybe fixed) : 0
Dropped bytes error (maybe fixed) : 0
Duplicated bytes error (maybe fixed) : 0
Inconsistency in error sectors : 0
Track 04
CRC32 hash (test run) : 2FB1AFB8
CRC32 hash : 2FB1AFB8
CRC32 hash (skip zero) : EC5E4200
AccurateRip signature : D9C9B066
->Track not present in AccurateRip database.
Statistics
Read error : 0
Skipped (treated as error) : 0
Edge jitter error (maybe fixed) : 0
Atom jitter error (maybe fixed) : 0
Drift error (maybe fixed) : 0
Dropped bytes error (maybe fixed) : 0
Duplicated bytes error (maybe fixed) : 0
Inconsistency in error sectors : 0
Track 05
CRC32 hash (test run) : D50FA9FF
CRC32 hash : D50FA9FF
CRC32 hash (skip zero) : 85E19C29
AccurateRip signature : 70BD5601
->Track not present in AccurateRip database.
Statistics
Read error : 0
Skipped (treated as error) : 0
Edge jitter error (maybe fixed) : 0
Atom jitter error (maybe fixed) : 0
Drift error (maybe fixed) : 0
Dropped bytes error (maybe fixed) : 0
Duplicated bytes error (maybe fixed) : 0
Inconsistency in error sectors : 0
Track 06
CRC32 hash (test run) : 5AD09FDD
CRC32 hash : 5AD09FDD
CRC32 hash (skip zero) : C307D0A9
AccurateRip signature : 25D737FA
->Track not present in AccurateRip database.
Statistics
Read error : 0
Skipped (treated as error) : 0
Edge jitter error (maybe fixed) : 0
Atom jitter error (maybe fixed) : 0
Drift error (maybe fixed) : 0
Dropped bytes error (maybe fixed) : 0
Duplicated bytes error (maybe fixed) : 0
Inconsistency in error sectors : 0
Track 07
Pre-gap length : 00:04:00
CRC32 hash (test run) : BD8B073B
CRC32 hash : BD8B073B
CRC32 hash (skip zero) : 7716C04B
AccurateRip signature : 25EAA04A
->Track not present in AccurateRip database.
Statistics
Read error : 0
Skipped (treated as error) : 0
Edge jitter error (maybe fixed) : 0
Atom jitter error (maybe fixed) : 0
Drift error (maybe fixed) : 0
Dropped bytes error (maybe fixed) : 0
Duplicated bytes error (maybe fixed) : 0
Inconsistency in error sectors : 0
Track 08
CRC32 hash (test run) : 90A0D375
CRC32 hash : 90A0D375
CRC32 hash (skip zero) : 7BD72999
AccurateRip signature : 3004C7EA
->Track not present in AccurateRip database.
Statistics
Read error : 0
Skipped (treated as error) : 0
Edge jitter error (maybe fixed) : 0
Atom jitter error (maybe fixed) : 0
Drift error (maybe fixed) : 0
Dropped bytes error (maybe fixed) : 0
Duplicated bytes error (maybe fixed) : 0
Inconsistency in error sectors : 0
Track 09
CRC32 hash (test run) : 1B7CEBBC
CRC32 hash : 1B7CEBBC
CRC32 hash (skip zero) : C027A101
AccurateRip signature : 427DCB97
->Track not present in AccurateRip database.
Statistics
Read error : 0
Skipped (treated as error) : 0
Edge jitter error (maybe fixed) : 0
Atom jitter error (maybe fixed) : 0
Drift error (maybe fixed) : 0
Dropped bytes error (maybe fixed) : 0
Duplicated bytes error (maybe fixed) : 0
Inconsistency in error sectors : 0
Track 10
CRC32 hash (test run) : FF61E80B
CRC32 hash : FF61E80B
CRC32 hash (skip zero) : 493723EC
AccurateRip signature : 19358194
->Track not present in AccurateRip database.
Statistics
Read error : 0
Skipped (treated as error) : 0
Edge jitter error (maybe fixed) : 0
Atom jitter error (maybe fixed) : 0
Drift error (maybe fixed) : 0
Dropped bytes error (maybe fixed) : 0
Duplicated bytes error (maybe fixed) : 0
Inconsistency in error sectors : 0
Track 11
Pre-gap length : 00:04:00
CRC32 hash (test run) : CD6CAAC5
CRC32 hash : CD6CAAC5
CRC32 hash (skip zero) : E068D7EB
AccurateRip signature : A94F5D2F
->Track not present in AccurateRip database.
Statistics
Read error : 0
Skipped (treated as error) : 0
Edge jitter error (maybe fixed) : 0
Atom jitter error (maybe fixed) : 0
Drift error (maybe fixed) : 0
Dropped bytes error (maybe fixed) : 0
Duplicated bytes error (maybe fixed) : 0
Inconsistency in error sectors : 0
Track 12
CRC32 hash (test run) : E48E16DC
CRC32 hash : E48E16DC
CRC32 hash (skip zero) : 1B37C6CB
AccurateRip signature : 9004B38E
->Track not present in AccurateRip database.
Statistics
Read error : 0
Skipped (treated as error) : 0
Edge jitter error (maybe fixed) : 0
Atom jitter error (maybe fixed) : 0
Drift error (maybe fixed) : 0
Dropped bytes error (maybe fixed) : 0
Duplicated bytes error (maybe fixed) : 0
Inconsistency in error sectors : 0
Track 13
CRC32 hash (test run) : 30BED7A4
CRC32 hash : 30BED7A4
CRC32 hash (skip zero) : B29B8075
AccurateRip signature : 16B7B6EE
->Track not present in AccurateRip database.
Statistics
Read error : 0
Skipped (treated as error) : 0
Edge jitter error (maybe fixed) : 0
Atom jitter error (maybe fixed) : 0
Drift error (maybe fixed) : 0
Dropped bytes error (maybe fixed) : 0
Duplicated bytes error (maybe fixed) : 0
Inconsistency in error sectors : 0
Track 14
CRC32 hash (test run) : 01FF8391
CRC32 hash : 01FF8391
CRC32 hash (skip zero) : B6C4DBDA
AccurateRip signature : 2B27150E
->Track not present in AccurateRip database.
Statistics
Read error : 0
Skipped (treated as error) : 0
Edge jitter error (maybe fixed) : 0
Atom jitter error (maybe fixed) : 0
Drift error (maybe fixed) : 0
Dropped bytes error (maybe fixed) : 0
Duplicated bytes error (maybe fixed) : 0
Inconsistency in error sectors : 0
No errors occurred
End of status report

Доп. информация:

В сказках Бориса Заходера, смеясь или негодуя, дети учатся понимать простую, но очень важную истину – «что такое хорошо и что такое плохо». Так, в тему постижения жизни Борис Владимирович включает понятия Добра и Зла, Справедливости и Несправедливости. И в этом большом и сложным мире иногда бывает трудно найти свое счастье. Где же и как его искать? На этот вопрос отвечает сказка Бориса Заходера «Отшельник и Роза».
Эту поэтическую сказку о торжестве лучших чувств рассказывают замечательные артисты Мария Бабанова, Борис Левинсон и другие. Удивительный голос Бабановой обладает волшебным свойством: он завораживает, мгновенно заставляет верить во все происходящее.
«Русачок» – это сказка о зайчонке, который больше не хотел быть зайцем. Он долго бегал по лесу, встречал разных животных и спрашивал их, как они живут, чтобы решить, кем же ему стать… В конце концов Русачок понял, что лучше всего оставаться самим собой, просто нужно вырасти большим, сильным и умным. Почему же он принял такое решение? Послушайте эту сказку и узнаете.
По названию «Серая Звездочка» сразу сложно догадаться, о ком эта сказка.
Жила-была на свете жаба, неуклюжая и некрасивая. Но, к счастью, она не знала о том, что она такая некрасивая, и о том, что она жаба. Почему жабе дали имя Серая Звездочка, и за что ее так любили цветы? Об этом ты узнаешь из рассказа папы-ежика.
Вы можете начинать темы
Вы можете отвечать на сообщения
Вы не можете редактировать свои сообщения
Вы не можете удалять свои сообщения
Вы не можете голосовать в опросах
Вы не можете прикреплять файлы к сообщениям
Вы можете скачивать файлы
Sitemap