[Детский аудиоспектакль] Верн Жюль - Двадцать тысяч лье под водой [Ростислав Плятт, Леонид Топчиев, Георгий Вицин, Юрий Аверин, 1962 / 2006 г., lossless, WAVPack, Double CD] 

Цитировать
Двадцать тысяч лье под водой
Год записи аудиоспектакля / издан на CD: 1962 / 2006
Автор: Жюль Верн
Исполнители: Ростислав Плятт, Леонид Топчиев, Георгий Вицин, Юрий Аверин
Жанр: Инсценировка / аудиоспектакль
Издательство, номер по каталогу: Два жирафа, DJ-D045, Double CD
Аудио кодек: WAVPack
Тип рипа: image+.cue
Битрейт аудио: lossless
Время звучания: 00:50:50 + 00:49:14
Страна-производитель диска: Россия
Штрихкод издания: 4602074100455
Источник: ley-barmaley / lossless-galaxy
Наличие сканов в содержимом раздачи: полное сканирование (JPG, 600dpi)
Из собраний Гостелерадиофонда.

Часть 1. “Владыка морских глубин”
Всё цивилизованное человечество встревожено вестью о том, что в Мировом океане обнаружен странный объект. Профессор Аронакс склоняется к мысли, что люди имеют дело с гигантским морским чудовищем. Однако в военном ведомстве на этот счёт имеется другое мнение. В составе экспедиции на фрегате “Авраам Линкольн” Пьер Аронакс имеет возможность убедиться, что неизвестный объект - корабль. Профессор и двое его друзей попадают на его борт и фактически становятся пленниками капитана Немо...

Действующие лица и исполнители:
Профессор Аронакс - Леонид Топчиев
Консель - Георгий Вицин
Нед Ленд - Юрий Аверин
Капитан Немо - Ростислав Плятт
Докладчик на военном совете - Валерий Лекарев
Председатель на военном совете - Яков Штейншнейдер
Капитан Фаррагут - Михаил Абрамов
Биржевик - Иван Александров
Вахтенный - Анатолий Кубацкий
Газетчики - Тамара Кузина, Николай Хрусталёв
Музыка из произведений французских композиторов.
Симфонический оркестр п/у Леонида Пятигорского.
Часть 2. "Победители морских стихий"
Несколько долгих месяцев провёл профессор Аронакс с друзьями на борту “Наутилуса”. За это время капитан Немо посвятил Аронакса во многие свои тайны, привлёк его к исследовательской работе, но мысль о побеге всё равно не оставляла пленников...

Действующие лица и исполнители:
Профессор Аронакс - Леонид Топчиев
Капитан Немо - Ростислав Плятт
Консель - Георгий Вицин
Нед Ленд - Юрий Аверин
Матрос - Яков Штейншнейдер
Музыка из произведений французских композиторов.
Симфонический оркестр п/у Леонида Пятигорского.

EAC log CD1

Exact Audio Copy V1.0 beta 3 from 29. August 2011
Отчёт EAC об извлечении, выполненном 29. апреля 2012, 16:03
Ростислав Плятт, Леонид Топчиев, Георгий Вицин, Юрий Аверин / Двадцать тысяч лье под водой (CD1) (Два жирафа, DJ-D045)
Дисковод: ASUS DRW-1814BL Adapter: 0 ID: 0
Режим чтения : Достоверность
Использование точного потока : Да
Отключение кэша аудио : Да
Использование указателей C2 : Нет
Коррекция смещения при чтении : 6
Способность читать области Lead-in и Lead-out : Нет
Заполнение пропущенных сэмплов тишиной : Да
Удаление блоков с тишиной в начале и конце : Нет
При вычислениях CRC использовались нулевые сэмплы : Да
Интерфейс : Встроенный Win32-интерфейс для Win NT/2000
Выходной формат : Внутренние WAV-операции
Формат сэмплов : 44.100 Гц; 16 бит; стерео
TOC извлечённого CD
Трек | Старт | Длительность | Начальный сектор | Конечный сектор
---------------------------------------------------------------------
1 | 0:00.00 | 2:08.69 | 0 | 9668
2 | 2:08.69 | 6:02.49 | 9669 | 36867
3 | 8:11.43 | 6:01.06 | 36868 | 63948
4 | 14:12.49 | 9:13.42 | 63949 | 105465
5 | 23:26.16 | 2:19.56 | 105466 | 115946
6 | 25:45.72 | 8:26.04 | 115947 | 153900
7 | 34:12.01 | 4:20.68 | 153901 | 173468
8 | 38:32.69 | 7:49.51 | 173469 | 208694
9 | 46:22.45 | 4:27.28 | 208695 | 228747
Характеристики диапазона извлечения и сообщения об ошибках
Выбранный диапазон
Имя файла G:\ley-barmaley\музыкальные сказки на сайте lossless-galaxy.ru\Двадцать тысяч лье под водой (CD1) (Два жирафа, DJ-D045).wav
Пиковый уровень 98.8 %
Скорость извлечения 7.7 X
Качество диапазона 100.0 %
CRC теста B35A7A54
CRC копии B35A7A54
Копирование... OK
Ошибок не произошло
AccurateRip: сводка
Трек 1 отсутствует в базе данных
Трек 2 отсутствует в базе данных
Трек 3 отсутствует в базе данных
Трек 4 отсутствует в базе данных
Трек 5 отсутствует в базе данных
Трек 6 отсутствует в базе данных
Трек 7 отсутствует в базе данных
Трек 8 отсутствует в базе данных
Трек 9 отсутствует в базе данных
Ни одного трека нет в базе AccurateRip
Конец отчёта
---- CUETools DB Plugin V2.1.3
[CTDB TOCID: d2d7Zicr.wArq.65a0MNFoWkwMw-] disk not present in database, Submit result: d2d7Zicr.wArq.65a0MNFoWkwMw- has been uploaded
==== Контрольная сумма отчёта 09778D3E7309107AAF956759415578130FBB62BB8D7171568A1A4E52858AA0E7 ====

EAC log CD2

Exact Audio Copy V1.0 beta 3 from 29. August 2011
Отчёт EAC об извлечении, выполненном 29. апреля 2012, 17:27
Ростислав Плятт, Леонид Топчиев, Георгий Вицин, Юрий Аверин / Двадцать тысяч лье под водой (CD2) (Два жирафа, DJ-D045)
Дисковод: ASUS DRW-1814BL Adapter: 0 ID: 0
Режим чтения : Достоверность
Использование точного потока : Да
Отключение кэша аудио : Да
Использование указателей C2 : Нет
Коррекция смещения при чтении : 6
Способность читать области Lead-in и Lead-out : Нет
Заполнение пропущенных сэмплов тишиной : Да
Удаление блоков с тишиной в начале и конце : Нет
При вычислениях CRC использовались нулевые сэмплы : Да
Интерфейс : Встроенный Win32-интерфейс для Win NT/2000
Выходной формат : Внутренние WAV-операции
Формат сэмплов : 44.100 Гц; 16 бит; стерео
TOC извлечённого CD
Трек | Старт | Длительность | Начальный сектор | Конечный сектор
---------------------------------------------------------------------
1 | 0:00.00 | 2:19.35 | 0 | 10459
2 | 2:19.35 | 5:01.49 | 10460 | 33083
3 | 7:21.09 | 4:41.05 | 33084 | 54163
4 | 12:02.14 | 3:41.27 | 54164 | 70765
5 | 15:43.41 | 5:04.62 | 70766 | 93627
6 | 20:48.28 | 4:19.47 | 93628 | 113099
7 | 25:08.00 | 4:14.35 | 113100 | 132184
8 | 29:22.35 | 2:19.42 | 132185 | 142651
9 | 31:42.02 | 3:34.02 | 142652 | 158703
10 | 35:16.04 | 2:34.41 | 158704 | 170294
11 | 37:50.45 | 5:58.31 | 170295 | 197175
12 | 43:49.01 | 3:11.24 | 197176 | 211524
13 | 47:00.25 | 2:13.61 | 211525 | 221560
Характеристики диапазона извлечения и сообщения об ошибках
Выбранный диапазон
Имя файла G:\ley-barmaley\музыкальные сказки на сайте lossless-galaxy.ru\Двадцать тысяч лье под водой (CD2) (Два жирафа, DJ-D045).wav
Пиковый уровень 98.8 %
Скорость извлечения 6.5 X
Качество диапазона 99.9 %
CRC теста EA131761
CRC копии EA131761
Копирование... OK
Ошибок не произошло
AccurateRip: сводка
Трек 1 отсутствует в базе данных
Трек 2 отсутствует в базе данных
Трек 3 отсутствует в базе данных
Трек 4 отсутствует в базе данных
Трек 5 отсутствует в базе данных
Трек 6 отсутствует в базе данных
Трек 7 отсутствует в базе данных
Трек 8 отсутствует в базе данных
Трек 9 отсутствует в базе данных
Трек 10 отсутствует в базе данных
Трек 11 отсутствует в базе данных
Трек 12 отсутствует в базе данных
Трек 13 отсутствует в базе данных
Ни одного трека нет в базе AccurateRip
Конец отчёта
---- CUETools DB Plugin V2.1.3
[CTDB TOCID: tFfEgaucW5lBJMwws3TJNLWq_kw-] disk not present in database, Submit result: tFfEgaucW5lBJMwws3TJNLWq_kw- has been uploaded
==== Контрольная сумма отчёта 1A8C40BF6B11C8B37E6C7E9EDF18AA3D7B966899DB5F0635D21EACD345D54542 ====

auCDtect

-----------------------
DON'T MODIFY THIS FILE
-----------------------
PERFORMER: auCDtect Task Manager, ver. 1.5.1RC3 build 1.5.1.4
Copyright (c) 2008-2010 y-soft. All rights reserved
http://y-soft.org
ANALYZER: auCDtect: CD records authenticity detector, version 0.8.2
Copyright (c) 2004 Oleg Berngardt. All rights reserved.
Copyright (c) 2004 Alexander Djourik. All rights reserved.
FILE: Двадцать тысяч лье под водой (CD1) (Два жирафа, DJ-D045).wv
Size: 295710088 Hash: 92494045A07C2E44BCE11945C963E373 Accuracy: -m0
Conclusion: CDDA 100%
Signature: EE9F419FB8F14EA14C4BCBB2210D725BA6676689
FILE: Двадцать тысяч лье под водой (CD2) (Два жирафа, DJ-D045).wv
Size: 279179348 Hash: CE41E39AD456CD29DA4721840C706400 Accuracy: -m0
Conclusion: CDDA 100%
Signature: E5D314772B85A4710C75A43A19C5412A546BCC21
FILE: Двадцать тысяч лье под водой (CD1) (Два жирафа, DJ-D045).wav
Size: 538015340 Hash: 92494045A07C2E44BCE11945C963E373 Accuracy: -m0
Conclusion: CDDA 100%
Signature: F73AF2994888BC9E75FD6207D901B2642EF2BE7B
FILE: Двадцать тысяч лье под водой (CD2) (Два жирафа, DJ-D045).wav
Size: 521111516 Hash: CE41E39AD456CD29DA4721840C706400 Accuracy: -m0
Conclusion: CDDA 100%
Signature: FEFAFA41FBF37C82615A596165411EB34039C986

CD & matrix




Другие аудиоспектакли
Вы можете начинать темы
Вы можете отвечать на сообщения
Вы не можете редактировать свои сообщения
Вы не можете удалять свои сообщения
Вы не можете голосовать в опросах
Вы не можете прикреплять файлы к сообщениям
Вы можете скачивать файлы
Sitemap