[Сказка] Усачев Андрей - Умная собачка Соня [О. Шорохова, А. Гущин, 2001 г., lossless, FLAC] 

Цитировать
Умная собачка Соня
Год выпуска: 2001 г.
Фамилия автора: Усачев
Имя автора: Андрей
Исполнитель: О. Шорохова, А. Гущин
Жанр: сказка
Издательство: Росмэн
Номер по каталогу: РА 14 06 CD
Тип аудиокниги: аудиокнига
Тип рипа: tracks+.cue
Источник: CD
Аудио кодек: FLAC
Битрейт аудио: lossless
Время звучания: 01:09:59
Описание: Чудесные истории о познании мира маленькой умной собачкой, живущей со своим хозяином Иваном Ивановичем.
Доп. информация:
MP3 (320) - http://rutracker.org/forum/viewtopic.php?t=3925022
MP3 (128) - http://rutracker.org/forum/viewtopic.php?t=607523

Лог создания рипа

Exact Audio Copy V1.0 beta 3 from 29. August 2011
Отчёт EAC об извлечении, выполненном 31. января 2012, 0:39
О. Шорохова, А. Кущин / Умная собачка Соня
Дисковод: Optiarc DVD RW AD-5240S Adapter: 3 ID: 1
Режим чтения : Достоверность
Использование точного потока : Да
Отключение кэша аудио : Да
Использование указателей C2 : Нет
Коррекция смещения при чтении : 48
Способность читать области Lead-in и Lead-out : Нет
Заполнение пропущенных сэмплов тишиной : Да
Удаление блоков с тишиной в начале и конце : Нет
При вычислениях CRC использовались нулевые сэмплы : Да
Интерфейс : Встроенный Win32-интерфейс для Win NT/2000
Обработка зазоров : Добавлено к предыдущему треку
Выходной формат : Пользовательский кодировщик
Выбранный битрейт : 768 kBit/s
Качество : Высокий
Добавление ID3-тега : Нет
Утилита сжатия : C:\Program Files\Exact Audio Copy\FLAC\FLAC.EXE
Дополнительные параметры : -6 -V -T "ARTIST=%artist%" -T "TITLE=%title%" -T "ALBUM=%albumtitle%" -T "DATE=%year%" -T "TRACKNUMBER=%tracknr%" -T "GENRE=%genre%" -T "COMMENT=%comment%" -T "BAND=%albuminterpret%" -T "ALBUMARTIST=%albuminterpret%" -T "COMPOSER=%composer%" %haslyrics%--tag-from-file=LYRICS="%lyricsfile%"%haslyrics% -T "DISCNUMBER=%cdnumber%" -T "TOTALDISCS=%totalcds%" -T "TOTALTRACKS=%numtracks%" %hascover%--picture="%coverfile%"%hascover% %source% -o %dest%
TOC извлечённого CD
Трек | Старт | Длительность | Начальный сектор | Конечный сектор
---------------------------------------------------------------------
1 | 0:00.00 | 1:53.65 | 0 | 8539
2 | 1:53.65 | 1:36.51 | 8540 | 15790
3 | 3:30.41 | 2:27.60 | 15791 | 26875
4 | 5:58.26 | 2:20.42 | 26876 | 37417
5 | 8:18.68 | 2:32.45 | 37418 | 48862
6 | 10:51.38 | 5:37.21 | 48863 | 74158
7 | 16:28.59 | 3:06.26 | 74159 | 88134
8 | 19:35.10 | 2:48.45 | 88135 | 100779
9 | 22:23.55 | 4:40.72 | 100780 | 121851
10 | 27:04.52 | 2:49.60 | 121852 | 134586
11 | 29:54.37 | 1:58.19 | 134587 | 143455
12 | 31:52.56 | 3:27.59 | 143456 | 159039
13 | 35:20.40 | 5:21.20 | 159040 | 183134
14 | 40:41.60 | 4:22.69 | 183135 | 202853
15 | 45:04.54 | 3:36.26 | 202854 | 219079
16 | 48:41.05 | 6:01.40 | 219080 | 246194
17 | 54:42.45 | 6:30.46 | 246195 | 275490
18 | 61:13.16 | 5:14.34 | 275491 | 299074
19 | 66:27.50 | 3:29.58 | 299075 | 314807
Трек 1
Имя файла L:\Новая папка\01. О. Шорохова, А. Кущин - Трек01.wav
Длина предзазора 0:00:02.00
Пиковый уровень 86.8 %
Скорость извлечения 1.6 X
Качество трека 99.9 %
CRC теста 063D8F95
CRC копии 063D8F95
Трек не обнаружен в базе AccurateRip
Копирование... OK
Трек 2
Имя файла L:\Новая папка\02. О. Шорохова, А. Кущин - Трек02.wav
Пиковый уровень 83.5 %
Скорость извлечения 2.0 X
Качество трека 100.0 %
CRC теста 6B19B8E9
CRC копии 6B19B8E9
Трек не обнаружен в базе AccurateRip
Копирование... OK
Трек 3
Имя файла L:\Новая папка\03. О. Шорохова, А. Кущин - Трек03.wav
Пиковый уровень 86.3 %
Скорость извлечения 2.3 X
Качество трека 100.0 %
CRC теста 2FB29296
CRC копии 2FB29296
Трек не обнаружен в базе AccurateRip
Копирование... OK
Трек 4
Имя файла L:\Новая папка\04. О. Шорохова, А. Кущин - Трек04.wav
Пиковый уровень 88.1 %
Скорость извлечения 2.4 X
Качество трека 100.0 %
CRC теста 6C39EFCD
CRC копии 6C39EFCD
Трек не обнаружен в базе AccurateRip
Копирование... OK
Трек 5
Имя файла L:\Новая папка\05. О. Шорохова, А. Кущин - Трек05.wav
Пиковый уровень 88.9 %
Скорость извлечения 2.6 X
Качество трека 100.0 %
CRC теста 98C3A41A
CRC копии 98C3A41A
Трек не обнаружен в базе AccurateRip
Копирование... OK
Трек 6
Имя файла L:\Новая папка\06. О. Шорохова, А. Кущин - Трек06.wav
Пиковый уровень 78.3 %
Скорость извлечения 2.8 X
Качество трека 99.9 %
CRC теста E33D28AE
CRC копии E33D28AE
Трек не обнаружен в базе AccurateRip
Копирование... OK
Трек 7
Имя файла L:\Новая папка\07. О. Шорохова, А. Кущин - Трек07.wav
Пиковый уровень 88.5 %
Скорость извлечения 3.1 X
Качество трека 100.0 %
CRC теста 089A8D1B
CRC копии 089A8D1B
Трек не обнаружен в базе AccurateRip
Копирование... OK
Трек 8
Имя файла L:\Новая папка\08. О. Шорохова, А. Кущин - Трек08.wav
Пиковый уровень 88.9 %
Скорость извлечения 3.1 X
Качество трека 100.0 %
CRC теста 67B6176B
CRC копии 67B6176B
Трек не обнаружен в базе AccurateRip
Копирование... OK
Трек 9
Имя файла L:\Новая папка\09. О. Шорохова, А. Кущин - Трек09.wav
Пиковый уровень 88.9 %
Скорость извлечения 3.6 X
Качество трека 100.0 %
CRC теста 670AEB80
CRC копии 670AEB80
Трек не обнаружен в базе AccurateRip
Копирование... OK
Трек 10
Имя файла L:\Новая папка\10. О. Шорохова, А. Кущин - Трек10.wav
Пиковый уровень 87.5 %
Скорость извлечения 3.5 X
Качество трека 100.0 %
CRC теста D300883B
CRC копии D300883B
Трек не обнаружен в базе AccurateRip
Копирование... OK
Трек 11
Имя файла L:\Новая папка\11. О. Шорохова, А. Кущин - Трек11.wav
Пиковый уровень 88.3 %
Скорость извлечения 3.3 X
Качество трека 100.0 %
CRC теста 7B13B95B
CRC копии 7B13B95B
Трек не обнаружен в базе AccurateRip
Копирование... OK
Трек 12
Имя файла L:\Новая папка\12. О. Шорохова, А. Кущин - Трек12.wav
Пиковый уровень 87.9 %
Скорость извлечения 3.2 X
Качество трека 99.9 %
CRC теста 2B0ABC04
CRC копии 2B0ABC04
Трек не обнаружен в базе AccurateRip
Копирование... OK
Трек 13
Имя файла L:\Новая папка\13. О. Шорохова, А. Кущин - Трек13.wav
Пиковый уровень 78.5 %
Скорость извлечения 4.1 X
Качество трека 100.0 %
CRC теста CD95B994
CRC копии CD95B994
Трек не обнаружен в базе AccurateRip
Копирование... OK
Трек 14
Имя файла L:\Новая папка\14. О. Шорохова, А. Кущин - Трек14.wav
Пиковый уровень 87.9 %
Скорость извлечения 3.7 X
Качество трека 99.9 %
CRC теста EAA4C37C
CRC копии EAA4C37C
Трек не обнаружен в базе AccurateRip
Копирование... OK
Трек 15
Имя файла L:\Новая папка\15. О. Шорохова, А. Кущин - Трек15.wav
Пиковый уровень 77.8 %
Скорость извлечения 4.2 X
Качество трека 100.0 %
CRC теста 962D3D08
CRC копии 962D3D08
Трек не обнаружен в базе AccurateRip
Копирование... OK
Трек 16
Имя файла L:\Новая папка\16. О. Шорохова, А. Кущин - Трек16.wav
Пиковый уровень 78.0 %
Скорость извлечения 4.3 X
Качество трека 99.9 %
CRC теста 4238D381
CRC копии 4238D381
Трек не обнаружен в базе AccurateRip
Копирование... OK
Трек 17
Имя файла L:\Новая папка\17. О. Шорохова, А. Кущин - Трек17.wav
Пиковый уровень 78.3 %
Скорость извлечения 4.9 X
Качество трека 100.0 %
CRC теста 8CC0A612
CRC копии 8CC0A612
Трек не обнаружен в базе AccurateRip
Копирование... OK
Трек 18
Имя файла L:\Новая папка\18. О. Шорохова, А. Кущин - Трек18.wav
Пиковый уровень 78.3 %
Скорость извлечения 5.0 X
Качество трека 100.0 %
CRC теста 419B3F95
CRC копии 419B3F95
Трек не обнаружен в базе AccurateRip
Копирование... OK
Трек 19
Имя файла L:\Новая папка\19. О. Шорохова, А. Кущин - Трек19.wav
Пиковый уровень 77.9 %
Скорость извлечения 4.9 X
Качество трека 100.0 %
CRC теста 7E63DEEE
CRC копии 7E63DEEE
Трек не обнаружен в базе AccurateRip
Копирование... OK
Ни одного трека нет в базе AccurateRip
Ошибок не произошло
Конец отчёта
==== Контрольная сумма отчёта 8B276C321BCE950AF4DFA6EA93F28E4016E2D0F6246F0F83BEB562E4CFF565C2 ====

Содержание индексной карты (.CUE)

REM DATE 2001
REM DISCID 05106513
REM COMMENT "ExactAudioCopy v1.0b3"
CATALOG 0000000000000
PERFORMER "О. Шорохова, А. Кущин"
TITLE "Умная собачка Соня"
FILE "01. О. Шорохова, А. Кущин - Трек01.wav" WAVE
TRACK 01 AUDIO
TITLE "Трек01"
PERFORMER "О. Шорохова, А. Кущин"
INDEX 01 00:00:00
FILE "02. О. Шорохова, А. Кущин - Трек02.wav" WAVE
TRACK 02 AUDIO
TITLE "Трек02"
PERFORMER "О. Шорохова, А. Кущин"
INDEX 01 00:00:00
FILE "03. О. Шорохова, А. Кущин - Трек03.wav" WAVE
TRACK 03 AUDIO
TITLE "Трек03"
PERFORMER "О. Шорохова, А. Кущин"
INDEX 01 00:00:00
FILE "04. О. Шорохова, А. Кущин - Трек04.wav" WAVE
TRACK 04 AUDIO
TITLE "Трек04"
PERFORMER "О. Шорохова, А. Кущин"
INDEX 01 00:00:00
FILE "05. О. Шорохова, А. Кущин - Трек05.wav" WAVE
TRACK 05 AUDIO
TITLE "Трек05"
PERFORMER "О. Шорохова, А. Кущин"
INDEX 01 00:00:00
FILE "06. О. Шорохова, А. Кущин - Трек06.wav" WAVE
TRACK 06 AUDIO
TITLE "Трек06"
PERFORMER "О. Шорохова, А. Кущин"
INDEX 01 00:00:00
FILE "07. О. Шорохова, А. Кущин - Трек07.wav" WAVE
TRACK 07 AUDIO
TITLE "Трек07"
PERFORMER "О. Шорохова, А. Кущин"
INDEX 01 00:00:00
FILE "08. О. Шорохова, А. Кущин - Трек08.wav" WAVE
TRACK 08 AUDIO
TITLE "Трек08"
PERFORMER "О. Шорохова, А. Кущин"
INDEX 01 00:00:00
FILE "09. О. Шорохова, А. Кущин - Трек09.wav" WAVE
TRACK 09 AUDIO
TITLE "Трек09"
PERFORMER "О. Шорохова, А. Кущин"
INDEX 01 00:00:00
FILE "10. О. Шорохова, А. Кущин - Трек10.wav" WAVE
TRACK 10 AUDIO
TITLE "Трек10"
PERFORMER "О. Шорохова, А. Кущин"
INDEX 01 00:00:00
FILE "11. О. Шорохова, А. Кущин - Трек11.wav" WAVE
TRACK 11 AUDIO
TITLE "Трек11"
PERFORMER "О. Шорохова, А. Кущин"
INDEX 01 00:00:00
FILE "12. О. Шорохова, А. Кущин - Трек12.wav" WAVE
TRACK 12 AUDIO
TITLE "Трек12"
PERFORMER "О. Шорохова, А. Кущин"
INDEX 01 00:00:00
FILE "13. О. Шорохова, А. Кущин - Трек13.wav" WAVE
TRACK 13 AUDIO
TITLE "Трек13"
PERFORMER "О. Шорохова, А. Кущин"
INDEX 01 00:00:00
FILE "14. О. Шорохова, А. Кущин - Трек14.wav" WAVE
TRACK 14 AUDIO
TITLE "Трек14"
PERFORMER "О. Шорохова, А. Кущин"
INDEX 01 00:00:00
FILE "15. О. Шорохова, А. Кущин - Трек15.wav" WAVE
TRACK 15 AUDIO
TITLE "Трек15"
PERFORMER "О. Шорохова, А. Кущин"
INDEX 01 00:00:00
FILE "16. О. Шорохова, А. Кущин - Трек16.wav" WAVE
TRACK 16 AUDIO
TITLE "Трек16"
PERFORMER "О. Шорохова, А. Кущин"
INDEX 01 00:00:00
FILE "17. О. Шорохова, А. Кущин - Трек17.wav" WAVE
TRACK 17 AUDIO
TITLE "Трек17"
PERFORMER "О. Шорохова, А. Кущин"
INDEX 01 00:00:00
FILE "18. О. Шорохова, А. Кущин - Трек18.wav" WAVE
TRACK 18 AUDIO
TITLE "Трек18"
PERFORMER "О. Шорохова, А. Кущин"
INDEX 01 00:00:00
FILE "19. О. Шорохова, А. Кущин - Трек19.wav" WAVE
TRACK 19 AUDIO
TITLE "Трек19"
PERFORMER "О. Шорохова, А. Кущин"
INDEX 01 00:00:00
Вы можете начинать темы
Вы можете отвечать на сообщения
Вы не можете редактировать свои сообщения
Вы не можете удалять свои сообщения
Вы не можете голосовать в опросах
Вы не можете прикреплять файлы к сообщениям
Вы можете скачивать файлы
!ВНИМАНИЕ!

Сайт не предоставляет электронные версии произведений, а занимается лишь коллекционированием и каталогизацией ссылок, присылаемых и публикуемых на форуме нашими читателями. Если вы являетесь правообладателем какого-либо представленного материала и не желаете, чтобы ссылка на него находилась в нашем каталоге, свяжитесь с нами, и мы незамедлительно удалим ее. Файлы для обмена на трекере предоставлены пользователями сайта, и администрация не несет ответственности за их содержание. Просьба не заливать файлы, защищенные авторскими правами, а также файлы нелегального содержания!

Искали программы, игры, дополнения, музыка mp3, аниме, аудио книги, журналы? Добро пожаловать на свободный торрент трекер Torrents, у нас можно скачать бесплатно, без смс и регистрации и прочих ограничений лучшие, отборные сборки программ, игр. Скачать торрентом не составит труда даже не опытному пользователю. Раздачи ежедневно обновляются, только лучшие и качественные раздачи, подробные описания и скриншоты. Огромная коллекция программ для работы со звуком, графикой, дизайном, а так же множество плагинов и инструментов к ним с подробной инструкцией и рекомендациями. Прошивки для навигаторов, карты. Разнообразные игры, для Windows, Linux. В коллекцие есть и старые игры любых жанров, Rpg, Action, Shooter, strategy Множество дополнений, модификаций, сценариев для популярных игр в жанре экш, рпг, гонки, стратегии, логические игры. Множество аддонов и сценариев для Microsoft Flight Simulator Большая коллекция книг, учебников. Если нет возможности купить печатное издание - смело скачивайте цифровую версию книги или, быть может, журнала. Не любите читать - можно загрузить бесплатно аудикнигу. Для веб дизайнеров и программистов так же найдется множество специализированного софта, таких как: редакторы с подсветкой, среды программирования, компоненты, системы управления базами данных, разнообразные скрипты и шаблоны. Не так давно у нас появился материал для автолюбителей и владельцев мото - оригинальные и неоригинальные каталоги запчастей, книги и журналы по ремонту и обслуживанию, видеоуроки, статьи по чип тюнингу, прошивкам. Процедура получения контента элементарная, достаточно просто скачать торрент файл и добавить его в загрузку в вашем торрент клиенте. Если у вас нет специального торрент клиента, вы можете его скачать у нас.