[Детская] Пушкин Александр - Сказка о царе Салтане, Сказка о мертвой царевне и семи богатырях, Сказка о золотом петушке (В гостях у сказки №1) [Клюквин Александр, 2005 г., lossless, APE] 

Цитировать
Сказка о царе Салтане, Сказка о мертвой царевне и семи богатырях, Сказка о золотом петушке
Год выпуска: 2005
Фамилия автора: Пушкин
Имя автора: Александр
Исполнитель: Клюквин Александр
Жанр: сказка
Издательство: Союз
Кат.№: SSTCD 0130-05
ISBN: н/д
Тип: аудиокнига
Аудио кодек: APE
Битрейт аудио: lossless
Тип рипа: image + .cue
Время звучания: 01:12:01
Источник: собственный рип
Описание:
Все знают о том, что в детстве Пушкин любил слушать сказки, которые рассказывала ему няня Арина Родионовна. Но на написание собственных сказок Пушкин решился лишь в зрелом возрасте, когда сформировался его интерес к древнерусской истории и русскому фольклору. В данный сборник вошли аудиоверсии 'Сказки о царе Салтане', 'Сказки о мертвой царевне и семи богатырях', 'Сказки о золотом петушке'.
Доп. информация:
128 kbps
80 kbps

Лог создания рипа

Exact Audio Copy V0.99 prebeta 5 from 4. May 2009
Отчёт EAC об извлечении, выполненном 20. сентября 2011, 21:06
Клюквин А. / Пушкин (В гостях у сказки №1)
Дисковод: HL-DT-STDVDRAM GE20NU10 Adapter: 3 ID: 1
Режим чтения : ДостоверностьИспользование точного потока : ДаОтключение кэша аудио : ДаИспользование указателей C2 : Нет
Коррекция смещения при чтении : 667Способность читать области Lead-in и Lead-out : НетЗаполнение пропущенных сэмплов тишиной : ДаУдаление блоков с тишиной в начале и конце : НетПри вычислениях CRC использовались нулевые сэмплы : ДаИнтерфейс : Встроенный Win32-интерфейс для Win NT/2000
Выходной формат : Внутренние WAV-операцииФормат сэмплов : 44.100 Гц; 16 бит; стерео
TOC извлечённого CD
Трек | Старт | Длительность | Начальный сектор | Конечный сектор --------------------------------------------------------------------- 1 | 0:00.00 | 1:30.00 | 0 | 6749 2 | 1:30.00 | 5:03.25 | 6750 | 29499 3 | 6:33.25 | 4:58.11 | 29500 | 51860 4 | 11:31.36 | 4:47.08 | 51861 | 73393 5 | 16:18.44 | 5:11.45 | 73394 | 96763 6 | 21:30.14 | 5:07.33 | 96764 | 119821 7 | 26:37.47 | 4:54.15 | 119822 | 141886 8 | 31:31.62 | 4:10.64 | 141887 | 160700 9 | 35:42.51 | 3:03.19 | 160701 | 174444 10 | 38:45.70 | 0:59.48 | 174445 | 178917 11 | 39:45.43 | 4:53.66 | 178918 | 200958 12 | 44:39.34 | 5:38.68 | 200959 | 226376 13 | 50:18.27 | 5:07.65 | 226377 | 249466 14 | 55:26.17 | 5:20.28 | 249467 | 273494 15 | 60:46.45 | 0:59.16 | 273495 | 277935 16 | 61:45.61 | 4:56.50 | 277936 | 300185 17 | 66:42.36 | 5:18.47 | 300186 | 324082
Характеристики диапазона извлечения и сообщения об ошибках
Выбранный диапазон
Имя файла H:\Клюквин А. - Пушкин (В гостях у сказки №1).wav
Пиковый уровень 92.3 % Качество диапазона 99.9 % CRC теста 9E50B336 CRC копии 9E50B336 Копирование... OK
Ошибок не произошло
AccurateRip: сводка
Трек 1 нет в базе данныхТрек 2 нет в базе данныхТрек 3 нет в базе данныхТрек 4 нет в базе данныхТрек 5 нет в базе данныхТрек 6 нет в базе данныхТрек 7 нет в базе данныхТрек 8 нет в базе данныхТрек 9 нет в базе данныхТрек 10 нет в базе данныхТрек 11 нет в базе данныхТрек 12 нет в базе данныхТрек 13 нет в базе данныхТрек 14 нет в базе данныхТрек 15 нет в базе данныхТрек 16 нет в базе данныхТрек 17 нет в базе данных
Ни одного трека нет в базе AccurateRip
Конец отчёта

Лог проверки качества

AUDIOCHECKER v2.0 beta (build 457) - by Dester - opdester@freemail.hu
~~~~~~~~~~~~~~~~~~~~~~~~~~~~~~~~~~
-=== DO NOT EDIT THIS FILE! ===-
Path: ...\Клюквин А. - Пушкин (В гостях у сказки №1) 2005
1 -=- Клюквин А. - Пушкин (В гостях у сказки №1).wav -=- CDDA (100%)
113377316
Вы можете начинать темы
Вы можете отвечать на сообщения
Вы не можете редактировать свои сообщения
Вы не можете удалять свои сообщения
Вы не можете голосовать в опросах
Вы не можете прикреплять файлы к сообщениям
Вы можете скачивать файлы
Sitemap