[Детский аудиоспектакль] Верн Жюль: Вокруг света в восемьдесят дней [Альберт Филозов, Александр Ильин, Анатолий Солодилин, Андрей Данилюк, 2005 / 2006, lossless, WavPack, Double CD] 

Цитировать
Вокруг света в восемьдесят дней
Год записи аудиоспектакля / издан на CD: 2005 / 2006
Автор: Жюль Верн
Исполнители: Альберт Филозов, Александр Ильин, Анатолий Солодилин, Андрей Данилюк, Александр Леонтьев, Ирина Киреева
Жанр: Аудиоспектакль
Издатель, номер по каталогу: Два жирафа, DJ-D113, Double CD
Аудиокодек: WavPack
Тип рипа: image+.cue
Битрейт: lossless
Время звучания: 0:58:08 + 0:59:49
Производитель CD: Россия
Источник: ley-barmaley / lossless-galaxy
Сканирование: full scans (JPG, 450dpi)
Лондонский джентльмен Филеас Фогг заключил с членами аристократического клуба пари на то, что сумеет объехать весь мир за 80 дней. Вслед за Фоггом и его слугой Паспарту отправляется детектив Фикс, уверенный в том, что Фогг - преступник, ограбивший Банк Великобритании.

EAC log CD1

Exact Audio Copy V1.0 beta 3 from 29. August 2011
Отчёт EAC об извлечении, выполненном 9. марта 2017, 18:30
Различные исполнители / Вокруг света (DJ-D113) (CD1)
Дисковод: ASUS CRW-5232AS Adapter: 0 ID: 0
Режим чтения : Достоверность
Использование точного потока : Да
Отключение кэша аудио : Да
Использование указателей C2 : Нет
Коррекция смещения при чтении : 6
Способность читать области Lead-in и Lead-out : Нет
Заполнение пропущенных сэмплов тишиной : Да
Удаление блоков с тишиной в начале и конце : Нет
При вычислениях CRC использовались нулевые сэмплы : Да
Интерфейс : Встроенный Win32-интерфейс для Win NT/2000
Выходной формат : Внутренние WAV-операции
Формат сэмплов : 44.100 Гц; 16 бит; стерео
TOC извлечённого CD
Трек | Старт | Длительность | Начальный сектор | Конечный сектор
---------------------------------------------------------------------
1 | 0:00.00 | 0:56.72 | 0 | 4271
2 | 0:56.72 | 5:34.50 | 4272 | 29371
3 | 6:31.47 | 4:53.74 | 29372 | 51420
4 | 11:25.46 | 1:40.10 | 51421 | 58930
5 | 13:05.56 | 3:16.10 | 58931 | 73640
6 | 16:21.66 | 2:54.24 | 73641 | 86714
7 | 19:16.15 | 3:09.32 | 86715 | 100921
8 | 22:25.47 | 0:56.32 | 100922 | 105153
9 | 23:22.04 | 4:27.24 | 105154 | 125202
10 | 27:49.28 | 2:54.49 | 125203 | 138301
11 | 30:44.02 | 7:47.29 | 138302 | 173355
12 | 38:31.31 | 7:45.53 | 173356 | 208283
13 | 46:17.09 | 2:42.16 | 208284 | 220449
14 | 48:59.25 | 9:08.45 | 220450 | 261594
Характеристики диапазона извлечения и сообщения об ошибках
Выбранный диапазон
Имя файла G:\ley-barmaley\музыкальные сказки на сайте lossless-galaxy.ru\Вокруг света (DJ-D113) (CD1).wav
Пиковый уровень 98.8 %
Скорость извлечения 2.4 X
Качество диапазона 100.0 %
CRC теста 48E4F5D4
CRC копии 48E4F5D4
Копирование... OK
Ошибок не произошло
AccurateRip: сводка
Трек 1 точность не определена (достоверность 1) [52363B37], AccurateRip вернул [7C91C7C7] (AR v2)
Трек 2 точность не определена (достоверность 1) [B01484C5], AccurateRip вернул [FCB0BE56] (AR v2)
Трек 3 точность не определена (достоверность 1) [8A67A4FD], AccurateRip вернул [5E77F35F] (AR v2)
Трек 4 точность не определена (достоверность 1) [1AA75690], AccurateRip вернул [7BFDA3C5] (AR v2)
Трек 5 точность не определена (достоверность 1) [08F5B94D], AccurateRip вернул [4C83CC88] (AR v2)
Трек 6 точность не определена (достоверность 1) [FA78F822], AccurateRip вернул [4DCFDF72] (AR v2)
Трек 7 точность не определена (достоверность 1) [00791996], AccurateRip вернул [094D9415] (AR v2)
Трек 8 точность не определена (достоверность 1) [DC2A3EB5], AccurateRip вернул [DB31AC28] (AR v2)
Трек 9 точность не определена (достоверность 1) [34C2D066], AccurateRip вернул [364659A5] (AR v2)
Трек 10 точность не определена (достоверность 1) [8DEAE4B4], AccurateRip вернул [614AD8F5] (AR v2)
Трек 11 точность не определена (достоверность 1) [3E355E41], AccurateRip вернул [3D627F35] (AR v2)
Трек 12 точность не определена (достоверность 1) [30D2E575], AccurateRip вернул [3E91F839] (AR v2)
Трек 13 точность не определена (достоверность 1) [C99F14E4], AccurateRip вернул [6E1BBD9B] (AR v2)
Трек 14 точность не определена (достоверность 1) [997A816B], AccurateRip вернул [8A64DF18] (AR v2)
Ни один трек не прошёл проверки на точность
В вашей базе может быть иной вариант штамповки диска
Конец отчёта
---- CUETools DB Plugin V2.1.3
[CTDB TOCID: OulSIGdKPOD.3hZ4Pzs4Ns1wvmo-] found, Submit result: OulSIGdKPOD.3hZ4Pzs4Ns1wvmo- has been confirmed
[1a331fd0] (1/1) Accurately ripped
==== Контрольная сумма отчёта 7E084F5D8CFD7B05AB049029844E50C913116CFCBCB7F8FD047ED73C958F0A68 ====

EAC log CD2

Exact Audio Copy V1.0 beta 3 from 29. August 2011
Отчёт EAC об извлечении, выполненном 9. марта 2017, 19:55
Различные исполнители / Вокруг света (DJ-D113) (CD2)
Дисковод: ASUS CRW-5232AS Adapter: 0 ID: 0
Режим чтения : Достоверность
Использование точного потока : Да
Отключение кэша аудио : Да
Использование указателей C2 : Нет
Коррекция смещения при чтении : 6
Способность читать области Lead-in и Lead-out : Нет
Заполнение пропущенных сэмплов тишиной : Да
Удаление блоков с тишиной в начале и конце : Нет
При вычислениях CRC использовались нулевые сэмплы : Да
Интерфейс : Встроенный Win32-интерфейс для Win NT/2000
Выходной формат : Внутренние WAV-операции
Формат сэмплов : 44.100 Гц; 16 бит; стерео
TOC извлечённого CD
Трек | Старт | Длительность | Начальный сектор | Конечный сектор
---------------------------------------------------------------------
1 | 0:00.00 | 3:59.45 | 0 | 17969
2 | 3:59.45 | 3:25.33 | 17970 | 33377
3 | 7:25.03 | 2:24.35 | 33378 | 44212
4 | 9:49.38 | 2:14.72 | 44213 | 54334
5 | 12:04.35 | 2:38.69 | 54335 | 66253
6 | 14:43.29 | 7:26.13 | 66254 | 99716
7 | 22:09.42 | 5:19.58 | 99717 | 123699
8 | 27:29.25 | 1:21.46 | 123700 | 129820
9 | 28:50.71 | 8:39.17 | 129821 | 168762
10 | 37:30.13 | 3:53.74 | 168763 | 186311
11 | 41:24.12 | 4:57.47 | 186312 | 208633
12 | 46:21.59 | 3:11.16 | 208634 | 222974
13 | 49:33.00 | 1:15.72 | 222975 | 228671
Характеристики диапазона извлечения и сообщения об ошибках
Выбранный диапазон
Имя файла G:\ley-barmaley\музыкальные сказки на сайте lossless-galaxy.ru\Вокруг света (DJ-D113) (CD2).wav
Пиковый уровень 98.8 %
Скорость извлечения 2.4 X
Качество диапазона 100.0 %
CRC теста 52FACDD9
CRC копии 52FACDD9
Копирование... OK
Ошибок не произошло
AccurateRip: сводка
Трек 1 точность не определена (достоверность 1) [0CABCCEB], AccurateRip вернул [02CE2C5C] (AR v2)
Трек 2 точность не определена (достоверность 1) [82BF4D31], AccurateRip вернул [84EFE16F] (AR v2)
Трек 3 точность не определена (достоверность 1) [3CB61468], AccurateRip вернул [7A059664] (AR v2)
Трек 4 точность не определена (достоверность 1) [10C15ACA], AccurateRip вернул [FC1A40B7] (AR v2)
Трек 5 точность не определена (достоверность 1) [E145D60A], AccurateRip вернул [0FA7232E] (AR v2)
Трек 6 точность не определена (достоверность 1) [2AB790B3], AccurateRip вернул [11077837] (AR v2)
Трек 7 точность не определена (достоверность 1) [D3876F84], AccurateRip вернул [6CE30F92] (AR v2)
Трек 8 точность не определена (достоверность 1) [AE4EA95C], AccurateRip вернул [3BA94609] (AR v2)
Трек 9 точность не определена (достоверность 1) [36E22B30], AccurateRip вернул [83C94E19] (AR v2)
Трек 10 точность не определена (достоверность 1) [5A98D3B9], AccurateRip вернул [27007B4E] (AR v2)
Трек 11 точность не определена (достоверность 1) [345EEFCA], AccurateRip вернул [1E9422E0] (AR v2)
Трек 12 точность не определена (достоверность 1) [A5868E3B], AccurateRip вернул [B49EB4AC] (AR v2)
Трек 13 точность не определена (достоверность 1) [B431E3F0], AccurateRip вернул [C5C97BB1] (AR v2)
Ни один трек не прошёл проверки на точность
В вашей базе может быть иной вариант штамповки диска
Конец отчёта
---- CUETools DB Plugin V2.1.3
[CTDB TOCID: kPPn44PaPLZtsyRTZjCQszrRw6M-] found, Submit result: kPPn44PaPLZtsyRTZjCQszrRw6M- has been confirmed
[09d528f9] (1/1) Accurately ripped
==== Контрольная сумма отчёта 0AEBF0951FF3926761C851B2EFA53CB20AB4C91D802C3EA82FCC9C0607E26645 ====

Dynamic Range Meter



foobar2000 1.3.8 / Dynamic Range Meter 1.1.1
log date: 2017-03-14 11:38:29
--------------------------------------------------------------------------------
Analyzed: Альберт Филозов, Александр Ильин, Анатолий Солодилин, Андрей Данилюк, Александр Леонтьев, Ирина Киреева / Вокруг света в восемьдесят дней (Два жирафа, DJ-D113, Double CD)
--------------------------------------------------------------------------------
DR Peak RMS Duration Track
--------------------------------------------------------------------------------
DR13 -0.11 dB -16.29 dB 0:57 01-Кража века
DR12 -0.11 dB -15.25 dB 5:35 02-Паспарту и мистер Фогг
DR11 -0.10 dB -14.54 dB 4:54 03-Спор
DR11 -0.12 dB -14.85 dB 1:40 04-Отъезд
DR11 -0.10 dB -13.92 dB 3:16 05-Пари на Фогга
DR12 -0.13 dB -15.27 dB 2:54 06-Погоня за вором
DR10 -0.10 dB -13.27 dB 3:09 07-Суэц
DR11 -0.27 dB -14.46 dB 0:56 08-Плавание
DR10 -0.11 dB -14.29 dB 4:27 09-Бомбей
DR11 -0.10 dB -14.80 dB 2:55 10-Железная дорога в Индии
DR11 -0.10 dB -14.71 dB 7:47 11-Путешествие на слоне. Спасение Ауды
DR12 -0.11 dB -15.46 dB 7:46 12-Калькутта. Тюрьма и спасение
DR11 -0.13 dB -15.04 dB 2:42 13-Путь в Гонконг. Козьни Фикса
DR11 -0.10 dB -14.72 dB 9:09 14-В Гонконге
DR12 -0.13 dB -15.62 dB 4:00 15-Исчезновение Паспарту
DR10 -0.10 dB -13.09 dB 3:25 16-На тайфуне в Японию
DR11 -0.12 dB -15.29 dB 2:24 17-Паспарту нашёлся
DR12 -0.15 dB -15.52 dB 2:15 18-Путь в Америку
DR11 -0.11 dB -14.63 dB 2:39 19-Встреча с янки
DR12 -0.15 dB -15.19 dB 7:26 20-По Америке на поезде
DR9 -0.10 dB -13.31 dB 5:20 21-Нападение индейцев
DR11 -0.11 dB -14.35 dB 1:22 22-На буере
DR11 -0.10 dB -14.13 dB 8:39 23-Путь в Европу
DR12 -0.11 dB -16.15 dB 3:54 24-Арест Фогга. Пари проиграно
DR11 -0.11 dB -15.62 dB 4:58 25-Потерянный день нашёлся
DR12 -0.12 dB -17.27 dB 3:11 26-В Реформ-клубе
DR11 -0.14 dB -15.83 dB 1:16 27-Не забывай гасить свет!
--------------------------------------------------------------------------------
Number of tracks: 27
Official DR value: DR11
Samplerate: 44100 Hz
Channels: 2
Bits per sample: 16
Bitrate: 789 kbps
Codec: WavPack
================================================================================

auCDtect

-----------------------
DON'T MODIFY THIS FILE
-----------------------
PERFORMER: auCDtect Task Manager, ver. 1.6.0 RC1 build 1.6.0.1
Copyright (c) 2008-2010 y-soft. All rights reserved
http://y-soft.org
ANALYZER: auCDtect: CD records authenticity detector, version 0.8.2
Copyright (c) 2004 Oleg Berngardt. All rights reserved.
Copyright (c) 2004 Alexander Djourik. All rights reserved.
FILE: Вокруг света (DJ-D113) (CD2).wv
Size: 300889400 Hash: 37863108FE31C77D9C44D33E2E462BDB Accuracy: -m0
Conclusion: CDDA 100%
Signature: 136B15EAFB69C241C7F20E1673238B9A2B88AC71
FILE: Вокруг света (DJ-D113) (CD1).wv
Size: 347863098 Hash: C1AD53D3FD038C307111810E36F51876 Accuracy: -m0
Conclusion: CDDA 99%
Signature: D787319116A2BDDD97F59D8160A2214271D7E655
FILE: Вокруг света (DJ-D113) (CD2).wav
Size: 537836588 Hash: 37863108FE31C77D9C44D33E2E462BDB Accuracy: -m0
Conclusion: CDDA 100%
Signature: 1C29B66F601965AF87ECAA030D50BD57BC93C1C4
FILE: Вокруг света (DJ-D113) (CD1).wav
Size: 615271484 Hash: C1AD53D3FD038C307111810E36F51876 Accuracy: -m0
Conclusion: CDDA 99%
Signature: 5935325B1BD9976E2D88482ABCD9846D692F2EBD

CD & matrix


облегчённая версия mp3
Жюль Верн: Двадцать тысяч лье под водой (1962) (Ростислав Плятт, Леонид Топчиев, Георгий Вицин, Юрий Аверин)
Другие аудиоспектакли
Вы можете начинать темы
Вы можете отвечать на сообщения
Вы не можете редактировать свои сообщения
Вы не можете удалять свои сообщения
Вы не можете голосовать в опросах
Вы не можете прикреплять файлы к сообщениям
Вы можете скачивать файлы
Sitemap