[Белорусский] [Сказка] Беларускія народныя казкі. Кніга 1, 2, 3, 4, 5, 6 / Белорусские народные сказки. Книга 1, 2, 3, 4, 5, 6 [Алег Хаменка і Ларыса Рыжкова, 2006 - 2007 г., lossless, FLAC] 

Цитировать
Беларускія народныя казкі. Кніга 1, 2, 3, 4, 5, 6 / Белорусские народные сказки. Книга 1, 2, 3, 4, 5, 6

Год выпуска: 2006 - 2007 г.
Язык: Белорусский
Исполнитель на языке аудиокниги: Алег Хаменка і Ларыса Рыжкова
Жанр: Сказки
Издательство: НМК
Оцифровано: Собственные CD
Время звучания: 06:41:40
Тип аудиокниги: аудиокнига
Аудио кодек: FLAC
Тип рипа: image+.cue
Битрейт аудио: lossless
Трэклист:

Беларускія народныя казкі. Кніга 1

01. Бык і ваўкі
02. Бык, парсюк, гусак і певень
03. Воўк, Зьмітрок, кабыла і баран
04. Воўк, стары сабака і кот
05. Дзед ды баба і воўк
06. Дурны воўк
07. Жораў ды чапля
08. Зайкіна хатка
09. Каза ў арахах
10. Каза Дарота

Лог создания рипа

Exact Audio Copy V0.99 prebeta 5 from 4. May 2009
Отчёт EAC об извлечении, выполненном 28. ноября 2011, 13:33
Алег Хаменка / Беларускія народныя казкі. Кніга 1
Дисковод: _NEC DVD_RW ND-3550A Adapter: 0 ID: 0
Режим чтения : Достоверность
Использование точного потока : Да
Отключение кэша аудио : Да
Использование указателей C2 : Нет
Коррекция смещения при чтении : 48
Способность читать области Lead-in и Lead-out : Нет
Заполнение пропущенных сэмплов тишиной : Да
Удаление блоков с тишиной в начале и конце : Нет
При вычислениях CRC использовались нулевые сэмплы : Да
Интерфейс : Установленный внешний ASPI-интерфейс
Выходной формат : Внутренние WAV-операции
Формат сэмплов : 44.100 Гц; 16 бит; стерео
TOC извлечённого CD
Трек | Старт | Длительность | Начальный сектор | Конечный сектор
---------------------------------------------------------------------
1 | 0:00.00 | 4:04.45 | 0 | 18344
2 | 4:04.45 | 7:44.37 | 18345 | 53181
3 | 11:49.07 | 3:01.37 | 53182 | 66793
4 | 14:50.44 | 3:24.00 | 66794 | 82093
5 | 18:14.44 | 6:24.38 | 82094 | 110931
6 | 24:39.07 | 7:51.37 | 110932 | 146293
7 | 32:30.44 | 3:39.00 | 146294 | 162718
8 | 36:09.44 | 4:32.00 | 162719 | 183118
9 | 40:41.44 | 6:33.56 | 183119 | 212649
10 | 47:15.25 | 14:54.00 | 212650 | 279699
Характеристики диапазона извлечения и сообщения об ошибках
Выбранный диапазон
Имя файла F:\Music lossless\Алег Хаменка - Беларускія народныя казкі. Кніга 1.wav
Пиковый уровень 97.4 %
Качество диапазона 100.0 %
CRC теста B0FF6136
CRC копии B0FF6136
Копирование... OK
Ошибок не произошло
AccurateRip: сводка
Трек 1 точность не определена (достоверность 1) [A9F76359], AccurateRip вернул [F2CC1C01]
Трек 2 точность не определена (достоверность 1) [F8B7CD4E], AccurateRip вернул [52690856]
Трек 3 точность не определена (достоверность 1) [23B9A16A], AccurateRip вернул [1F91938A]
Трек 4 точность не определена (достоверность 1) [75E2B365], AccurateRip вернул [74B2BD85]
Трек 5 точность не определена (достоверность 1) [CDA88AE1], AccurateRip вернул [005082A1]
Трек 6 точность не определена (достоверность 1) [033AD5DF], AccurateRip вернул [D66A98A7]
Трек 7 точность не определена (достоверность 1) [78547EDA], AccurateRip вернул [3D0C4A42]
Трек 8 точность не определена (достоверность 1) [6822BE28], AccurateRip вернул [6EFAF2D8]
Трек 9 точность не определена (достоверность 1) [2BAFB067], AccurateRip вернул [E29B31AF]
Трек 10 точность не определена (достоверность 1) [8EA29858], AccurateRip вернул [9FE2CC30]
Ни один трек не прошёл проверки на точность
В вашей базе может быть иной вариант штамповки диска
Конец отчёта

Беларускія народныя казкі. Кніга 2

01. Гусак, мядзведзь, воўк, лісіца і кабанец
02. Казёл і баран
03. Козы
04. Кот, ліса і воўк
05. Коцік з пеўнем ды ліска
06. Курка-раба
07. Ліса і цецярук
08. Ліса-каталічка
09. Лісіца і жораў
10. Лісічка-сястрычка і воўк
11. Лісічка-сястрычка, заяц, воўк і мядзведзь

Лог снятия рипа

Exact Audio Copy V0.99 prebeta 5 from 4. May 2009
Отчёт EAC об извлечении, выполненном 7. ноября 2011, 22:00
Алег Хаменка / Беларускія народныя казкі. Кніга 2
Дисковод: _NEC DVD_RW ND-3550A Adapter: 0 ID: 0
Режим чтения : Достоверность
Использование точного потока : Да
Отключение кэша аудио : Да
Использование указателей C2 : Нет
Коррекция смещения при чтении : 48
Способность читать области Lead-in и Lead-out : Нет
Заполнение пропущенных сэмплов тишиной : Да
Удаление блоков с тишиной в начале и конце : Нет
При вычислениях CRC использовались нулевые сэмплы : Да
Интерфейс : Установленный внешний ASPI-интерфейс
Выходной формат : Внутренние WAV-операции
Формат сэмплов : 44.100 Гц; 16 бит; стерео
TOC извлечённого CD
Трек | Старт | Длительность | Начальный сектор | Конечный сектор
---------------------------------------------------------------------
1 | 0:00.00 | 4:21.56 | 0 | 19630
2 | 4:21.56 | 5:24.67 | 19631 | 43997
3 | 9:46.48 | 9:42.00 | 43998 | 87647
4 | 19:28.48 | 2:58.00 | 87648 | 100997
5 | 22:26.48 | 5:52.00 | 100998 | 127397
6 | 28:18.48 | 7:31.00 | 127398 | 161222
7 | 35:49.48 | 1:23.00 | 161223 | 167447
8 | 37:12.48 | 1:43.00 | 167448 | 175172
9 | 38:55.48 | 2:04.00 | 175173 | 184472
10 | 40:59.48 | 4:13.00 | 184473 | 203447
11 | 45:12.48 | 17:44.00 | 203448 | 283247
Характеристики диапазона извлечения и сообщения об ошибках
Выбранный диапазон
Имя файла F:\Music lossless\Алег Хаменка - Беларускія народныя казкі. Кніга 2.wav
Пиковый уровень 92.3 %
Качество диапазона 99.9 %
CRC теста 77D7C83B
CRC копии 77D7C83B
Копирование... OK
Ошибок не произошло
AccurateRip: сводка
Трек 1 нет в базе данных
Трек 2 нет в базе данных
Трек 3 нет в базе данных
Трек 4 нет в базе данных
Трек 5 нет в базе данных
Трек 6 нет в базе данных
Трек 7 нет в базе данных
Трек 8 нет в базе данных
Трек 9 нет в базе данных
Трек 10 нет в базе данных
Трек 11 нет в базе данных
Ни одного трека нет в базе AccurateRip
Конец отчёта

Беларускія народныя казкі. Кніга 3

01. Ляшчынка і пеўнік
02. Мужык, воўк і ліса
03. Мужык ды мароз
04. Мужык, мядзведзь і ліса
05. Мядзведзь на ліпавай назе
06. Піражок
07. Пра старога ката
08. Сабака, воўк, баран і кот
09. Сабака і воўк
10. Сонца і вецер
11. Чаму ваўкі званка баяцца
12. Чаму леў уцёк з нашай стараны
13. Як конь стаў старшым ад льва
14. Як лісу ашукала варона
15. Як свінка трапіла ваўку ў зубы

Лог создания рипа

Exact Audio Copy V0.99 prebeta 5 from 4. May 2009
Отчёт EAC об извлечении, выполненном 29. ноября 2011, 3:44
Алег Хаменка / Беларускія народныя казкі. Кніга 3
Дисковод: _NEC DVD_RW ND-3550A Adapter: 0 ID: 0
Режим чтения : Достоверность
Использование точного потока : Да
Отключение кэша аудио : Да
Использование указателей C2 : Нет
Коррекция смещения при чтении : 48
Способность читать области Lead-in и Lead-out : Нет
Заполнение пропущенных сэмплов тишиной : Да
Удаление блоков с тишиной в начале и конце : Нет
При вычислениях CRC использовались нулевые сэмплы : Да
Интерфейс : Установленный внешний ASPI-интерфейс
Выходной формат : Внутренние WAV-операции
Формат сэмплов : 44.100 Гц; 16 бит; стерео
TOC извлечённого CD
Трек | Старт | Длительность | Начальный сектор | Конечный сектор
---------------------------------------------------------------------
1 | 0:00.00 | 3:10.28 | 0 | 14277
2 | 3:10.28 | 6:28.00 | 14278 | 43377
3 | 9:38.28 | 3:38.37 | 43378 | 59764
4 | 13:16.65 | 9:30.00 | 59765 | 102514
5 | 22:46.65 | 3:26.56 | 102515 | 118020
6 | 26:13.46 | 7:06.00 | 118021 | 149970
7 | 33:19.46 | 5:43.08 | 149971 | 175703
8 | 39:02.54 | 8:22.00 | 175704 | 213353
9 | 47:24.54 | 8:22.37 | 213354 | 251040
10 | 55:47.16 | 2:12.21 | 251041 | 260961
11 | 57:59.37 | 4:14.00 | 260962 | 280011
12 | 62:13.37 | 3:48.00 | 280012 | 297111
13 | 66:01.37 | 7:10.00 | 297112 | 329361
14 | 73:11.37 | 4:19.50 | 329362 | 348836
15 | 77:31.12 | 2:11.56 | 348837 | 358717
Характеристики диапазона извлечения и сообщения об ошибках
Выбранный диапазон
Имя файла F:\Music lossless\Алег Хаменка - Беларускія народныя казкі. Кніга 3.wav
Пиковый уровень 97.9 %
Качество диапазона 100.0 %
CRC теста 3D32DA6C
CRC копии 3D32DA6C
Копирование... OK
Ошибок не произошло
AccurateRip: сводка
Трек 1 нет в базе данных
Трек 2 нет в базе данных
Трек 3 нет в базе данных
Трек 4 нет в базе данных
Трек 5 нет в базе данных
Трек 6 нет в базе данных
Трек 7 нет в базе данных
Трек 8 нет в базе данных
Трек 9 нет в базе данных
Трек 10 нет в базе данных
Трек 11 нет в базе данных
Трек 12 нет в базе данных
Трек 13 нет в базе данных
Трек 14 нет в базе данных
Трек 15 нет в базе данных
Ни одного трека нет в базе AccurateRip
Конец отчёта

Беларускія народныя казкі. Кніга 4

01. Аб ведзьме, якая сына жаніла
02. Два браты
03. З рога ўсяго многа
04. Іван Пракрасны і князь Уладымяр
05. Іван Іванавіч царэвіч

Лог создания рипа

Exact Audio Copy V0.99 prebeta 5 from 4. May 2009
Отчёт EAC об извлечении, выполненном 8. ноября 2011, 22:48
Алег Хаменка і Ларыса Рыжкова / Беларускія народныя казкі. Кніга 4
Дисковод: _NEC DVD_RW ND-3550A Adapter: 0 ID: 0
Режим чтения : Достоверность
Использование точного потока : Да
Отключение кэша аудио : Да
Использование указателей C2 : Нет
Коррекция смещения при чтении : 48
Способность читать области Lead-in и Lead-out : Нет
Заполнение пропущенных сэмплов тишиной : Да
Удаление блоков с тишиной в начале и конце : Нет
При вычислениях CRC использовались нулевые сэмплы : Да
Интерфейс : Установленный внешний ASPI-интерфейс
Выходной формат : Внутренние WAV-операции
Формат сэмплов : 44.100 Гц; 16 бит; стерео
TOC извлечённого CD
Трек | Старт | Длительность | Начальный сектор | Конечный сектор
---------------------------------------------------------------------
1 | 0:00.00 | 10:34.00 | 0 | 47549
2 | 10:34.00 | 4:54.00 | 47550 | 69599
3 | 15:28.00 | 7:22.00 | 69600 | 102749
4 | 22:50.00 | 6:58.65 | 102750 | 134164
5 | 29:48.65 | 35:16.28 | 134165 | 292892
Характеристики диапазона извлечения и сообщения об ошибках
Выбранный диапазон
Имя файла F:\Music lossless\Алег Хаменка і Ларыса Рыжкова - Беларускія народныя казкі. Кніга 4.wav
Пиковый уровень 96.1 %
Качество диапазона 99.9 %
CRC теста 148C51D9
CRC копии 148C51D9
Копирование... OK
Ошибок не произошло
AccurateRip: сводка
Трек 1 нет в базе данных
Трек 2 нет в базе данных
Трек 3 нет в базе данных
Трек 4 нет в базе данных
Трек 5 нет в базе данных
Ни одного трека нет в базе AccurateRip
Конец отчёта

Беларускія народныя казкі. Кніга 5

01. Кот і дурань
02. Іван Іванавіч купецкі сын
03. Музыка i яшчарка
04. Паччарка i мядзведзь
05. Пiлiпка сынок

Лог создания рипа

Exact Audio Copy V0.99 prebeta 5 from 4. May 2009
Отчёт EAC об извлечении, выполненном 9. ноября 2011, 9:09
Алег Хаменка i Ларыса Рыжкова / Беларускія народныя казкі. Кніга 5
Дисковод: _NEC DVD_RW ND-3550A Adapter: 0 ID: 0
Режим чтения : Достоверность
Использование точного потока : Да
Отключение кэша аудио : Да
Использование указателей C2 : Нет
Коррекция смещения при чтении : 48
Способность читать области Lead-in и Lead-out : Нет
Заполнение пропущенных сэмплов тишиной : Да
Удаление блоков с тишиной в начале и конце : Нет
При вычислениях CRC использовались нулевые сэмплы : Да
Интерфейс : Установленный внешний ASPI-интерфейс
Выходной формат : Внутренние WAV-операции
Формат сэмплов : 44.100 Гц; 16 бит; стерео
TOC извлечённого CD
Трек | Старт | Длительность | Начальный сектор | Конечный сектор
---------------------------------------------------------------------
1 | 0:00.00 | 7:40.37 | 0 | 34536
2 | 7:40.37 | 32:09.56 | 34537 | 179267
3 | 39:50.18 | 6:10.00 | 179268 | 207017
4 | 46:00.18 | 11:06.00 | 207018 | 256967
5 | 57:06.18 | 9:23.37 | 256968 | 299229
Характеристики диапазона извлечения и сообщения об ошибках
Выбранный диапазон
Имя файла F:\Music lossless\Алег Хаменка i Ларыса Рыжкова - Беларускія народныя казкі. Кніга 5.wav
Пиковый уровень 96.5 %
Качество диапазона 99.9 %
CRC теста CAD41247
CRC копии CAD41247
Копирование... OK
Ошибок не произошло
AccurateRip: сводка
Трек 1 нет в базе данных
Трек 2 нет в базе данных
Трек 3 нет в базе данных
Трек 4 нет в базе данных
Трек 5 нет в базе данных
Ни одного трека нет в базе AccurateRip
Конец отчёта

Беларускія народныя казкі. Кніга 6

01. Кот Максiм-сват
02. Мал-малышок
03. Падчарыца i чорт
04. Пра падчарку

Лог создания рипа

Exact Audio Copy V0.99 prebeta 5 from 4. May 2009
Отчёт EAC об извлечении, выполненном 10. ноября 2011, 22:56
Алег Хаменка i Ларыса Рыжкова / Беларускія народныя казкі. Кніга 6
Дисковод: _NEC DVD_RW ND-3550A Adapter: 0 ID: 0
Режим чтения : Достоверность
Использование точного потока : Да
Отключение кэша аудио : Да
Использование указателей C2 : Нет
Коррекция смещения при чтении : 48
Способность читать области Lead-in и Lead-out : Нет
Заполнение пропущенных сэмплов тишиной : Да
Удаление блоков с тишиной в начале и конце : Нет
При вычислениях CRC использовались нулевые сэмплы : Да
Интерфейс : Установленный внешний ASPI-интерфейс
Выходной формат : Внутренние WAV-операции
Формат сэмплов : 44.100 Гц; 16 бит; стерео
TOC извлечённого CD
Трек | Старт | Длительность | Начальный сектор | Конечный сектор
---------------------------------------------------------------------
1 | 0:00.00 | 9:04.56 | 0 | 40855
2 | 9:04.56 | 45:38.18 | 40856 | 246223
3 | 54:42.74 | 6:18.00 | 246224 | 274573
4 | 61:00.74 | 4:16.00 | 274574 | 293773
Характеристики диапазона извлечения и сообщения об ошибках
Выбранный диапазон
Имя файла F:\Music lossless\Алег Хаменка i Ларыса Рыжкова - Беларускія народныя казкі. Кніга 6.wav
Пиковый уровень 96.5 %
Качество диапазона 99.9 %
CRC теста A4F30ACC
CRC копии A4F30ACC
Копирование... OK
Ошибок не произошло
AccurateRip: сводка
Трек 1 нет в базе данных
Трек 2 нет в базе данных
Трек 3 нет в базе данных
Трек 4 нет в базе данных
Ни одного трека нет в базе AccurateRip
Конец отчёта
-

Лог проверки качества

Started at: пятница, 11. 11. 2011. - 21:12.11
4 files found
1 -===- D:\Audio Books\Беларускія народныя казкі lossless\Кніга 2\Алег Хаменка - Беларускія народныя казкі. Кніга 2.flac
Extracted successfully
Conclusion: this track is CDDA with probability 100%
Tempfile successfully deleted.
2 -===- D:\Audio Books\Беларускія народныя казкі lossless\Кніга 4\Алег Хаменка і Ларыса Рыжкова - Беларускія народныя казкі. Кніга 4.flac
Extracted successfully
Conclusion: this track is CDDA with probability 100%
Tempfile successfully deleted.
3 -===- D:\Audio Books\Беларускія народныя казкі lossless\Кніга 5\Алег Хаменка i Ларыса Рыжкова - Беларускія народныя казкі. Кніга 5.flac
Extracted successfully
Conclusion: this track is CDDA with probability 100%
Tempfile successfully deleted.
4 -===- D:\Audio Books\Беларускія народныя казкі lossless\Кніга 6\Алег Хаменка i Ларыса Рыжкова - Беларускія народныя казкі. Кніга 6.flac
Extracted successfully
Conclusion: this track is CDDA with probability 100%
Tempfile successfully deleted.
Finished at: пятница, 11. 11. 2011. - 21:30.37 (operation time: 0:18.25)-Started at: вторник, 27. 12. 2011. - 11:39.50
2 files found
1 -===- D:\Audio Books\Беларускія народныя казкі lossless\Кніга 1\Алег Хаменка - Беларускія народныя казкі. Кніга 1.flac
Extracted successfully
Conclusion: this track is CDDA with probability 100%
Tempfile successfully deleted.
2 -===- D:\Audio Books\Беларускія народныя казкі lossless\Кніга 3\Алег Хаменка - Беларускія народныя казкі. Кніга 3.flac
Extracted successfully
Conclusion: this track is CDDA with probability 100%
Tempfile successfully deleted.
Finished at: вторник, 27. 12. 2011. - 11:49.28 (operation time: 0:09.38)
-

Проект «Беларусь на rutracker.org»

Приветствую вас на моём проекте «Беларусь на rutracker.org». Давно стал воспринимать портал, как дело уже не просто русское, а международное (наверное, после того, как увидел, что “Музыку Беларуси XVIII столетия” у меня качал японец, а дальше были шведы, финны, португальцы, американцы…). Поэтому для меня стало очевидно, что Беларусь здесь должна присутствовать наравне с остальными странами, а где-то их и обгонять:) Как? Естественно, здесь должны быть белорусские раздачи:) Чему я и посвятил своё свободное время. Результат перед вами, удачного вам путешествия!
http://rutracker.org/forum/tracker.php?rid=10433424
Зайдя по этой ссылке, Вы попадёте в страну Беларусь…
Музыка и фильмы, книги и аудиокниги, фотосессии и аудиоспектакли, предложенные Вашему вниманию, приоткроют завесу неизвестности над нашей культурой и историей.
Релиз группы: MP3 - http://rutracker.org/forum/viewtopic.php?t=3815409
Вы можете начинать темы
Вы можете отвечать на сообщения
Вы не можете редактировать свои сообщения
Вы не можете удалять свои сообщения
Вы не можете голосовать в опросах
Вы не можете прикреплять файлы к сообщениям
Вы можете скачивать файлы
Sitemap