[Детский аудиоспектакль] Дитрих Александр / Синявский Пётр: Хлопушки с сюрпризами ~ Самый лучший Дед Мороз (Мелодия-детям) [Зиновий Гердт, Маргарита Корабельникова, Евгений Весник и другие, 1971, 1975 / 2009 г., lossless, WavPack] 

Цитировать
Хлопушки с сюрпризами
Самый лучший Дед Мороз

Год записи аудиоспектакля / издан на CD: 1971, 1975 / 2009
Авторы: Александр Кириллович Дитрих ● Пётр Алексеевич Синявский
Исполнители: ● Зиновий Гердт, Маргарита Корабельникова, Евгений Весник, Елена Понсова, Виктор Хохряков, Юрий Пузырёв, Борис Толмазов, Агарь Власова, Ирина Паппе
● Тамара Мурина, Спартак Мишулин
Жанр: Музыкальная сказка / Аудиоспектакль
Издательство, номер по каталогу: Мелодия, MEL CD 50 01651
Аудиокодек: WavPack
Тип рипа: image+.cue
Битрейт: lossless
Время звучания: 1:01:19
Производитель диска: Россия
Источник: ley-barmaley / lossless-galaxy
Наличие сканов в содержимом раздачи: полное сканирование (JPG, 600dpi)
Хлопушки с сюрпризами
Вы знаете Кляксина? Петю Кляксина? Того самого Петю, с которым под Новый год случилось необычайное происшествие? Не огорчайтесь, если вы его не знаете, «вы его ещё узнаете»!..
Именно так заявил он своим школьным приятелям, собираясь потрясти всю школу, учителей и родителей великолепным новогодним вечером, на котором все сюрпризы должны были быть его собственного изобретения.
В этой забавной «сказке-были» многое похоже на правду. В самом деле, кому, например, не приходилось слышать про чудо-людей, не боящихся в самый лютый мороз купаться в ледяной воде? А вот Пете довелось даже встретиться с таким человеком — с седобородым дедом, плескавшимся, словно большая рыба, в проруби. И такой это был старый-престарый дед, что, кажется, «он и в самом раннем детстве был дедушкой». Этот «морозоустойчивый» дед и помог Кляксину стать «чудодеем» и сдержать своё слово. Вы, наверное, давно догадались, что Пете повстречался самый что ни на есть настоящий Дед Мороз. А Петя, видно, потому не сразу его узнал, что, как вы сами понимаете, наш «дедушка морж» не полез ведь в прорубь, не сняв своей шубы да шапки, не выпустив из рук громадного мешка с подарками?!
Подарок Пете всё-таки достался. Да не простой, а с секретом. Ведь недаром сказка называется: «Хлопушки с сюрпризами». Вот эти самые хлопушки — они и есть новогодний подарок Деда Мороза. А что за секрет? Этого вы пока не узнаете. Иначе что же за сказка, которую раньше времени всю расскажут!
Придётся вам сегодня познакомиться и с двумя препротивными героями — хвастунами и хулиганами: ведь в сказке и они встречаются. Встретились они Пете ещё в начале сказки и побежали за ним по пятам, чтобы не дать ни ему, ни его школьным приятелям порадоваться на новогодней ёлке... Кто они такие, эти сказочные хулиганы? Самое смешное, что они и сами хорошенько не помнят, кто из них кто. Как известно, во всяком новогоднем празднике участвуют Дед Мороз и Снегурочка. А здесь всё наоборот: Бабка Морозилиха и Дед Снегур. Бабка злющая-презлющая, ей не под ёлкой плясать, а на помеле летать, как Бабе-Яге. А Снегур только и думает, где бы какую пакость устроить, кому бы настроение испортить...
Послушайте, как Петя этих хитрющих да злющих злодеев перехитрил! Послушайте, как и кого он из беды выручил, и как его потом за это отблагодарили. Послушайте и решите, что лучше: бездельничать да всякие глупые забавы придумывать или же выручать друзей, быть зачинщиком весёлых и полезных дел, думать о других больше, чем о себе...
Много забавных приключений в этой весёлой сказке, много смешных песенок, потому что сказка эта ведь ещё и музыкальная. Поют тут все: и Дед Мороз, и рыбак на речке, и злодейка Морозилиха со своим дружком-хулиганом, и даже волки... /Н. Пучкина/
Ведущий – Зиновий Гердт
Петя Кляксин – Маргарита Корабельникова
Снегур – Евгений Весник
Морозилиха – Елена Понсова
Дед Мороз – Виктор Хохряков
Рыболов – Юрий Пузырёв
Волк – Борис Толмазов
Школьники – Агарь Власова, Ирина Паппе
Инструментальный ансамбль п/у Бориса Тихонова
Самый лучший Дед Мороз
Если к увлекательной сказке написать мелодичную яркую музыку, может получиться что-то очень интересное. Хотелось, чтобы именно таким радостным сюрпризом стала для вас музыкальная сказка «Самый лучший Дед Мороз» композитора Мераба Парцхаладзе и поэта Петра Синявского. Эта сказка про мальчишку, который хотел научиться волшебству и сделать что-то хорошее для других. Поэтому и знакомый — летающий человечек Карлсон помогает мальчишке.
Музыку сказки написал композитор Мераб Алексеевич Парцхаладзе (р. 1924) автор многих детских песен и пьес, симфонической музыки для театра и кино.
Летом 1941 года Мераб Парцхаладзе, выпускник батумского музыкального училища стоял перед выбором: кем стать — музыкантом или врачом. Но за него всё решила война. До победных дней сержант Парцхаладзе служил в рядах Советской Армии. Много лет спустя, после окончания консерватории, он ещё не раз будет возвращаться в своих сочинениях к армейской теме, рассказывая о суровых военных дорогах.
Когда же композитор пишет детскую музыку, мелодии его радостны, они как бы «начинены» то свежим ветром, то солнечным светом, то задорной улыбкой. Вот и в сказке «Самый лучший Дед Мороз» много чудесных запоминающихся песен и роднит их всех улыбка, которая так зримо слышится в каждой из них. Здесь и бодрая песня фигуристов, и Дедморозовский марш, и Концерт для кастрюльки с сосульками...
Да, всю эту историю про Деда Мороза сопровождает мелодичная прозрачная, изобретательно написанная музыка. В оркестре вы услышите голоса скрипок и кларнета, колокольчиков и арфы. Такая оркестровка помогает создать атмосферу чего-то неправдоподобного, сказочного. Так слова становятся музыкой, а музыка — словами. /Я. Халецкий/
Мальчик – Тамара Мурина
Карлсон – Спартак Мишулин
Большой детский хор Всесоюзного радио и Центрального телевидения
Художественный руководитель Виктор Попов
Инструментальный ансамбль, дирижёр Константин Кримец

EAC log

Exact Audio Copy V1.0 beta 3 from 29. August 2011
Отчёт EAC об извлечении, выполненном 9. марта 2014, 15:00
Зиновий Гердт, Маргарита Корабельникова, Евгений Весник и другие / Хлопушки с сюрпризами (Мелодия, MEL CD 50 01651)
Дисковод: ASUS DRW-1814BL Adapter: 0 ID: 0
Режим чтения : Достоверность
Использование точного потока : Да
Отключение кэша аудио : Да
Использование указателей C2 : Нет
Коррекция смещения при чтении : 6
Способность читать области Lead-in и Lead-out : Нет
Заполнение пропущенных сэмплов тишиной : Да
Удаление блоков с тишиной в начале и конце : Нет
При вычислениях CRC использовались нулевые сэмплы : Да
Интерфейс : Встроенный Win32-интерфейс для Win NT/2000
Выходной формат : Внутренние WAV-операции
Формат сэмплов : 44.100 Гц; 16 бит; стерео
TOC извлечённого CD
Трек | Старт | Длительность | Начальный сектор | Конечный сектор
---------------------------------------------------------------------
1 | 0:00.00 | 5:29.02 | 0 | 24676
2 | 5:29.02 | 4:55.51 | 24677 | 46852
3 | 10:24.53 | 3:53.02 | 46853 | 64329
4 | 14:17.55 | 3:34.27 | 64330 | 80406
5 | 17:52.07 | 5:09.64 | 80407 | 103645
6 | 23:01.71 | 5:18.59 | 103646 | 127554
7 | 28:20.55 | 4:30.13 | 127555 | 147817
8 | 32:50.68 | 6:35.47 | 147818 | 177489
9 | 39:26.40 | 7:41.57 | 177490 | 212121
10 | 47:08.22 | 6:13.31 | 212122 | 240127
11 | 53:21.53 | 7:57.01 | 240128 | 275903
Характеристики диапазона извлечения и сообщения об ошибках
Выбранный диапазон
Имя файла G:\ley-barmaley\музыкальные сказки на сайте lossless-galaxy.ru\Хлопушки с сюрпризами (Мелодия, MEL CD 50 01651).wav
Пиковый уровень 89.3 %
Скорость извлечения 4.5 X
Качество диапазона 100.0 %
CRC теста 468B4420
CRC копии 468B4420
Копирование... OK
Ошибок не произошло
AccurateRip: сводка
Трек 1 отсутствует в базе данных
Трек 2 отсутствует в базе данных
Трек 3 отсутствует в базе данных
Трек 4 отсутствует в базе данных
Трек 5 отсутствует в базе данных
Трек 6 отсутствует в базе данных
Трек 7 отсутствует в базе данных
Трек 8 отсутствует в базе данных
Трек 9 отсутствует в базе данных
Трек 10 отсутствует в базе данных
Трек 11 отсутствует в базе данных
Ни одного трека нет в базе AccurateRip
Конец отчёта
---- CUETools DB Plugin V2.1.3
[CTDB TOCID: J2_pahXTeBB7tTfZrQZlEMgPAA4-] disk not present in database, Submit result: J2_pahXTeBB7tTfZrQZlEMgPAA4- has been uploaded
==== Контрольная сумма отчёта AA1B72073F8021D55D002E3B0DA0BD1AA7F60D6977CAEEAE49DC5347FDF28CAC ====

Dynamic Range Meter



foobar2000 1.1.15 / Dynamic Range Meter 1.1.1
log date: 2014-03-09 15:04:22
--------------------------------------------------------------------------------
Analyzed: Ведущий – Зиновий Гердт; Петя Кляксин – Маргарита Корабельникова; Снегур – Евгений Весник; Морозилиха – Елена Понсова; Дед Мороз – Виктор Хохряков; Рыболов – Юрий Пузырёв; Волк – Борис Толмазов; Школьники – Агарь Власова, Ирина Паппе. Инструментальный ансамбль п/у Бориса Тихонова. / Хлопушки с сюрпризами (Мелодия, MEL CD 50 01651) (1-7)
Мальчик – Тамара Мурина; Карлсон – Спартак Мишулин. Большой детский хор Всесоюзного радио и Центрального телевидения. Художественный руководитель Виктор Попов. Инструментальный ансамбль, дирижёр Константин Кримец. / Хлопушки с сюрпризами (Мелодия, MEL CD 50 01651) (8-11)
--------------------------------------------------------------------------------
DR Peak RMS Duration Track
--------------------------------------------------------------------------------
DR18 -2.35 dB -24.37 dB 5:29 01-Хлопушки с сюрпризами. Часть 1
DR18 -1.84 dB -25.49 dB 4:56 02-Хлопушки с сюрпризами. Часть 2
DR17 -3.40 dB -25.57 dB 3:53 03-Хлопушки с сюрпризами. Часть 3
DR18 -2.10 dB -26.03 dB 3:34 04-Хлопушки с сюрпризами. Часть 4
DR18 -1.89 dB -24.97 dB 5:10 05-Хлопушки с сюрпризами. Часть 5
DR18 -0.98 dB -24.29 dB 5:19 06-Хлопушки с сюрпризами. Часть 6
DR17 -2.49 dB -24.38 dB 4:30 07-Хлопушки с сюрпризами. Часть 7
DR14 -4.05 dB -21.58 dB 6:36 08-Самый лучший Дед Мороз. Часть 1
DR13 -4.61 dB -21.17 dB 7:42 09-Самый лучший Дед Мороз. Часть 2
DR13 -2.79 dB -19.47 dB 6:13 10-Самый лучший Дед Мороз. Часть 3
DR14 -4.31 dB -22.07 dB 7:57 11-Самый лучший Дед Мороз. Часть 4
--------------------------------------------------------------------------------
Number of tracks: 11
Official DR value: DR16
Samplerate: 44100 Hz
Channels: 2
Bits per sample: 16
Bitrate: 683 kbps
Codec: WavPack
================================================================================

auCDtect

-----------------------
DON'T MODIFY THIS FILE
-----------------------
PERFORMER: auCDtect Task Manager, ver. 1.5.1RC3 build 1.5.1.4
Copyright (c) 2008-2010 y-soft. All rights reserved
http://y-soft.org
ANALYZER: auCDtect: CD records authenticity detector, version 0.8.2
Copyright (c) 2004 Oleg Berngardt. All rights reserved.
Copyright (c) 2004 Alexander Djourik. All rights reserved.
FILE: Хлопушки с сюрпризами (Мелодия, MEL CD 50 01651).wv
Size: 314168078 Hash: 211B63AA672666FA56DBF130B9C8DA47 Accuracy: -m0
Conclusion: CDDA 99%
Signature: 300F2E5A5CC4866A89E93F75AE9526F554ACEB93
FILE: Хлопушки с сюрпризами (Мелодия, MEL CD 50 01651).wav
Size: 648926252 Hash: 211B63AA672666FA56DBF130B9C8DA47 Accuracy: -m0
Conclusion: CDDA 99%
Signature: 72317677E06ECD8E4F34C56C616EC5F6E0BEA6EC

CD & matrix

модератору

Раздача под поглощение: http://rutracker.org/forum/viewtopic.php?t=2588710
Другие аудиоспектакли
Вы можете начинать темы
Вы можете отвечать на сообщения
Вы не можете редактировать свои сообщения
Вы не можете удалять свои сообщения
Вы не можете голосовать в опросах
Вы не можете прикреплять файлы к сообщениям
Вы можете скачивать файлы
Sitemap