[Детская] КУШАЙ И СЛУШАЙ (Аппетитные сказки клоуна Баниласки) - 2003. Lossless. FLAC (image+.cue) 

Цитировать
КУШАЙ И СЛУШАЙ (Аппетитные сказки клоуна Баниласки) - 2003. Lossless (image + cue), Flac.
В исполнении Натальи Варлей.
Жанр: Сказки
Год выпуска диска: 2003
Производитель диска: Россия
Аудио кодек: FLAC
Тип рипа: image+.cue
Продолжительность: 59:28
Трэклист:
1. Вступление.
2. Про кита и дельфина.
3. Про крокодила и страуса.
4. Про льва и жирафа.
5. Про канарейку и попугая.
6. Про орла и сову.
7. Про собаку и лису.
8. Про лошадь, пони и верблюда.
9. Про медведя и ёжика.
10. Про волка, зайца и кота.
11. Про черепаху и обезьяну.
12. Заключение.
Доп. информация: Сказки в стихах рассказывает малышам добрый клоун Баниласка:
Только чтобы сказки слушать,
Надо хорошенько кушать.
Баниласка посидит,
За тобою поглядит,
Сказку новую расскажет,
Маслом булочку намажет,
Молока в стакан нальет,
Ты поешь, и он уйдет.

Автор стихов: Марк Фримштейн.
Аранжировка: Андрей Горбачёв.
Исполнитель: Наталья Варлей.
Художник: Юлия Стоцкая.
Дизайн: Юлия Стоцкая.
Продюсеры: Вадим Бух, Михаил Литваков.
Раздача в MP3 :http://rutracker.org/forum/viewtopic.php?t=45971

Tau Analyzer

Лог EAC

Exact Audio Copy V0.99 prebeta 5 from 4. May 2009
EAC extraction logfile from 25. October 2009, 2:03
Наталья Варлей / Кушай и слушай (Аппетитные сказки клоуна Баниласки)
Used drive : HL-DT-STDVDRAM GSA-T20N Adapter: 2 ID: 0
Read mode : Secure
Utilize accurate stream : Yes
Defeat audio cache : Yes
Make use of C2 pointers : No
Read offset correction : 667
Overread into Lead-In and Lead-Out : No
Fill up missing offset samples with silence : Yes
Delete leading and trailing silent blocks : No
Null samples used in CRC calculations : Yes
Used interface : Native Win32 interface for Win NT & 2000
Used output format : User Defined Encoder
Selected bitrate : 1024 kBit/s
Quality : High
Add ID3 tag : No
Command line compressor : F:\SOFT\FLAC\flac-1.2.1-win\bin\flac.exe
Additional command line options : -8 -V %s
TOC of the extracted CD
Track | Start | Length | Start sector | End sector
---------------------------------------------------------
1 | 0:00.00 | 3:07.00 | 0 | 14024
2 | 3:07.00 | 7:14.01 | 14025 | 46575
3 | 10:21.01 | 5:21.01 | 46576 | 70651
4 | 15:42.02 | 5:23.00 | 70652 | 94876
5 | 21:05.02 | 4:43.00 | 94877 | 116101
6 | 25:48.02 | 4:15.00 | 116102 | 135226
7 | 30:03.02 | 4:03.01 | 135227 | 153452
8 | 34:06.03 | 6:35.01 | 153453 | 183078
9 | 40:41.04 | 5:01.02 | 183079 | 205655
10 | 45:42.06 | 4:59.02 | 205656 | 228082
11 | 50:41.08 | 5:24.00 | 228083 | 252382
12 | 56:05.08 | 3:23.01 | 252383 | 267608
Range status and errors
Selected range
Filename C:\Users\Freshman\Desktop\Сказки перед сном Кушай и слушай\КУШАЙ И СЛУШАЙ (Аппетитные сказки клоуна Баниласки)\Наталья Варлей - Кушай и слушай (Аппетитные сказки клоуна Баниласки).wav
Peak level 98.8 %
Range quality 100.0 %
Test CRC 2C535E33
Copy CRC 2C535E33
Copy OK
No errors occurred
End of status report

Cue file

REM DATE 2003
REM DISCID A20DF00C
REM COMMENT "ExactAudioCopy v0.99pb5"
PERFORMER "Наталья Варлей"
TITLE "Кушай и слушай (Аппетитные сказки клоуна Баниласки)"
FILE "Наталья Варлей - Кушай и слушай (Аппетитные сказки клоуна Баниласки).flac"
TRACK 01 AUDIO
TITLE "Вступление."
PERFORMER "Наталья Варлей"
FLAGS DCP
INDEX 01 00:00:00
TRACK 02 AUDIO
TITLE " Про кита и дельфина."
PERFORMER "Наталья Варлей"
FLAGS DCP
INDEX 01 03:07:00
TRACK 03 AUDIO
TITLE "Про крокодила и страуса."
PERFORMER "Наталья Варлей"
FLAGS DCP
INDEX 01 10:21:01
TRACK 04 AUDIO
TITLE "Про льва и жирафа."
PERFORMER "Наталья Варлей"
FLAGS DCP
INDEX 01 15:42:02
TRACK 05 AUDIO
TITLE "Про канарейку и попугая."
PERFORMER "Наталья Варлей"
FLAGS DCP
INDEX 01 21:05:02
TRACK 06 AUDIO
TITLE "Про орла и сову."
PERFORMER "Наталья Варлей"
FLAGS DCP
INDEX 01 25:48:02
TRACK 07 AUDIO
TITLE "Про собаку и лису."
PERFORMER "Наталья Варлей"
FLAGS DCP
INDEX 01 30:03:02
TRACK 08 AUDIO
TITLE "Про лошадь, пони и верблюда."
PERFORMER "Наталья Варлей"
FLAGS DCP
INDEX 01 34:06:03
TRACK 09 AUDIO
TITLE "Про медведя и ёжика."
PERFORMER "Наталья Варлей"
FLAGS DCP
INDEX 01 40:41:04
TRACK 10 AUDIO
TITLE "Про волка, зайца и кота"
PERFORMER "Наталья Варлей"
FLAGS DCP
INDEX 01 45:42:06
TRACK 11 AUDIO
TITLE "Про черепаху и обезьяну."
PERFORMER "Наталья Варлей"
FLAGS DCP
INDEX 01 50:41:08
TRACK 12 AUDIO
TITLE "Заключение."
PERFORMER "Наталья Варлей"
FLAGS DCP
INDEX 01 56:05:08
Вы можете начинать темы
Вы можете отвечать на сообщения
Вы не можете редактировать свои сообщения
Вы не можете удалять свои сообщения
Вы не можете голосовать в опросах
Вы не можете прикреплять файлы к сообщениям
Вы можете скачивать файлы
Sitemap