Остаться в живых / LOST / Сезон: 4 / Серии: 1-14 (14) (Джей Джей Абрамс / J.J. Abrams) [2008, США, фантастика, триллер, драма, детектив, приключения, Blu-Ray > 4xDVD9 (Custom)] DUB + MVO (Lostfilm) + Original + Comments + Subs(Rus, Eng) 

Цитировать
1 сезон, 2 сезон, 3 сезон, 5 сезон, 6 сезон- Остаться в живых / LOST4 СЕЗОН Год выпуска: 2008
Страна: США
Жанр: фантастика, триллер, драма, детектив, приключения...
Продолжительность: 14 серий по ~45 мин
Перевод: Профессиональный (полное дублирование), профессиональный (многоголосый)
Оригинальная аудиодорожка: английская
Русские субтитры: есть
Режиссёры: Джек Бендер, Дэниэл Эттиэс, Род Холкомб, Карен Гавиола, Стефен Семел, Стивен Уильямс, Пол А. Эдвардс, Таккер Гейтс, Эрик Ланёвилль, Грег Яйтанс, Бобби Рот, Кевин Хукс, Джей Джей Абрамс
В ролях: Мэттью Фокс, Эванджелин Лилли, Джош Холлоуэй, Терри О’Куинн, Нэвин Эндрюс, Хорхе Гарсиа, Майкл Эмерсон, Эмили де Рэйвин, Дэниэл Дэ Ким, Юн-жин Ким, Доминик Монахэн, Генри Йен Кьюсик, Элизабет Митчелл, Кен Люн, Мэдисон, Мэгги Грэйс, Нестор Карбонелл, Джереми Дэвис, Джефф Фэйи, Иен Сомерхолдер, Адевале Акиннуойе-Агбадже, Мишель Родригес, Синтия Уэтрос, Л. Скотт Колдуэлл, М. К. Гейни, Л. Скотт Колдуэлл
Описание: Красавец-лайнер, совершающий полет из Сиднея в Лос-Анджелес, неожиданно терпит крушение. 48 пассажиров, оставшихся в живых, оказываются на пустынном острове посреди океана. Люди в панике. Надежда быть найденными довольно призрачна. Поэтому остается только одно: собраться с силами и постараться выжить на острове, начиненном множеством опасностей…

Доп. информация: Трансфер с американского Blu ray. Кодировалось видео в 3 прохода VBR. Меню собрано с DVD9 R2 и издания "С.Р.И.", DVD структура создана с нуля. На некоторых сериях присутствуют комментарии создателей. Оригинальные субтитры взяты с Blu ray-remux'а. Точки перехода на второй слой имеются. Диски с дополнительными материалами было решено не делать, так как R5 практически идентичны по наполнению R1.
На 1 и 4 DVD по 3 серии, на 2 и 3 DVD по 4 серии.

Над релизом работали: kushnerchukartem, Bad boy 911, Xpюша.
Особая благодарность за помощь в деталях: Xpюша, germanm2000, samsonq.
И отдельное спасибо
Sayrox (oblozhki.net)
за обложки для больших коробок.
Тип релиза: DVD9 (Custom)
Контейнер: DVD Video
Видео кодек: MPEG2
Аудио кодек: AC3
Видео: MPEG2, NTSC 16:9 (720x480) VBR Auto Letterboxed ~ 5 200-5 500 Kbit/s
Аудио: Английский DD 5.1, 448Kbps
Аудио: Русский DD 2.0, 192Kbps, (DUB) CEE
Аудио: Русский DD 5.1, 448Kbps, (MVO) Lostfilm
Субтитры: Английские, Русские, Русские форсированные

DVD Info

DVD1

Title: Data
Size: 6.58 Gb ( 6 899 290 KBytes ) - DVD-9
Enabled regions: 1, 2, 3, 4, 5, 6, 7, 8
VTS_01 :
Play Length: 00:00:06
Video: NTSC 16:9 (720x480) VBR, Auto Letterboxed
Audio:
English (Dolby AC3, 6 ch)
VTS_02 :
Play Length: 02:09:16+00:43:06+00:43:07+00:43:03
Video: NTSC 16:9 (720x480) VBR, Auto Letterboxed
Audio:
English (Dolby AC3, 6 ch)
Russian (Dolby AC3, 2 ch)
Russian (Dolby AC3, 6 ch)
English (Dolby AC3, 2 ch)
Subtitles:
English
Russian
Russian
VTS_03 :
Play Length: 00:08:06
Video: NTSC 16:9 (720x480) VBR, Auto Letterboxed
Audio:
English (Dolby AC3, 6 ch)
Subtitles:
Russian
Menu Video:
NTSC 4:3 (720x480) VBR
Auto Pan&Scan, Auto Letterboxed
Menu English Language Unit :
Root Menu
Chapter (PTT) Menu

DVD2

Title: Data
Size: 7.90 Gb ( 8 279 866 KBytes ) - DVD-9
Enabled regions: 1, 2, 3, 4, 5, 6, 7, 8
VTS_01 :
Play Length: 00:00:06
Video: NTSC 16:9 (720x480) VBR, Auto Letterboxed
Audio:
English (Dolby AC3, 6 ch)
VTS_02 :
Play Length: 02:51:50+00:43:02+00:43:06+00:42:58+00:42:44
Video: NTSC 16:9 (720x480) VBR, Auto Letterboxed
Audio:
English (Dolby AC3, 6 ch)
Russian (Dolby AC3, 2 ch)
Russian (Dolby AC3, 6 ch)
English (Dolby AC3, 2 ch)
Subtitles:
English
Russian
Russian
Menu Video:
NTSC 4:3 (720x480) VBR
Auto Pan&Scan, Auto Letterboxed
Menu English Language Unit :
Root Menu
Chapter (PTT) Menu

DVD3

Title: Data
Size: 7.88 Gb ( 8 262 352 KBytes ) - DVD-9
Enabled regions: 1, 2, 3, 4, 5, 6, 7, 8
VTS_01 :
Play Length: 00:00:06
Video: NTSC 16:9 (720x480) VBR, Auto Letterboxed
Audio:
English (Dolby AC3, 6 ch)
VTS_02 :
Play Length: 02:52:02+00:43:06+00:42:44
Video: NTSC 16:9 (720x480) VBR, Auto Letterboxed
Audio:
English (Dolby AC3, 6 ch)
Russian (Dolby AC3, 2 ch)
Russian (Dolby AC3, 6 ch)
Subtitles:
English
Russian
Russian
Menu Video:
NTSC 4:3 (720x480) VBR
Auto Pan&Scan, Auto Letterboxed
Menu English Language Unit :
Root Menu
Chapter (PTT) Menu

DVD4

Title: Data
Size: 6.28 Gb ( 6 589 828 KBytes ) - DVD-9
Enabled regions: 1, 2, 3, 4, 5, 6, 7, 8
VTS_01 :
Play Length: 00:00:06
Video: NTSC 16:9 (720x480) VBR, Auto Letterboxed
Audio:
English (Dolby AC3, 6 ch)
VTS_02 :
Play Length: 02:07:56+00:42:55+00:41:54+00:43:07
Video: NTSC 16:9 (720x480) VBR, Auto Letterboxed
Audio:
English (Dolby AC3, 6 ch)
Russian (Dolby AC3, 2 ch)
Russian (Dolby AC3, 6 ch)
English (Dolby AC3, 2 ch)
Subtitles:
English
Russian
Russian
Menu Video:
NTSC 4:3 (720x480) VBR
Auto Pan&Scan, Auto Letterboxed
Menu English Language Unit :
Root Menu
Chapter (PTT) Menu

MediaInfo

DVD1

General
Complete name : D:\_DVD_\LOST_SEASON4\LOST_SEASON4_D01\VIDEO_TS\VTS_02_1.VOB
Format : MPEG-PS
File size : 1 024 MiB
Duration : 19mn 53s
Overall bit rate mode : Variable
Overall bit rate : 7 198 Kbps
Video
ID : 224 (0xE0)
Format : MPEG Video
Format version : Version 2
Format profile : Main@Main
Format settings, BVOP : Yes
Format settings, Matrix : Custom
Format settings, GOP : Variable
Duration : 19mn 53s
Bit rate mode : Variable
Bit rate : 5 775 Kbps
Maximum bit rate : 9 800 Kbps
Width : 720 pixels
Height : 480 pixels
Display aspect ratio : 16:9
Frame rate : 23.976 fps
Standard : NTSC
Color space : YUV
Chroma subsampling : 4:2:0
Bit depth : 8 bits
Scan type : Progressive
Scan order : 2:3 Pulldown
Compression mode : Lossy
Bits/(Pixel*Frame) : 0.697
Stream size : 822 MiB (80%)
Audio #1
ID : 189 (0xBD)-128 (0x80)
Format : AC-3
Format/Info : Audio Coding 3
Mode extension : CM (complete main)
Format settings, Endianness : Big
Muxing mode : DVD-Video
Duration : 19mn 53s
Bit rate mode : Constant
Bit rate : 448 Kbps
Channel(s) : 6 channels
Channel positions : Front: L C R, Side: L R, LFE
Sampling rate : 48.0 KHz
Bit depth : 16 bits
Compression mode : Lossy
Stream size : 63.7 MiB (6%)
Audio #2
ID : 189 (0xBD)-129 (0x81)
Format : AC-3
Format/Info : Audio Coding 3
Mode extension : CM (complete main)
Format settings, Endianness : Big
Muxing mode : DVD-Video
Duration : 19mn 53s
Bit rate mode : Constant
Bit rate : 192 Kbps
Channel(s) : 2 channels
Channel positions : Front: L R
Sampling rate : 48.0 KHz
Bit depth : 16 bits
Compression mode : Lossy
Stream size : 27.3 MiB (3%)
Audio #3
ID : 189 (0xBD)-130 (0x82)
Format : AC-3
Format/Info : Audio Coding 3
Mode extension : CM (complete main)
Format settings, Endianness : Big
Muxing mode : DVD-Video
Duration : 19mn 53s
Bit rate mode : Constant
Bit rate : 448 Kbps
Channel(s) : 6 channels
Channel positions : Front: L C R, Side: L R, LFE
Sampling rate : 48.0 KHz
Bit depth : 16 bits
Compression mode : Lossy
Stream size : 63.7 MiB (6%)
Audio #4
ID : 189 (0xBD)-131 (0x83)
Format : AC-3
Format/Info : Audio Coding 3
Mode extension : CM (complete main)
Format settings, Endianness : Big
Muxing mode : DVD-Video
Duration : 19mn 53s
Bit rate mode : Constant
Bit rate : 192 Kbps
Channel(s) : 2 channels
Channel positions : Front: L R
Sampling rate : 48.0 KHz
Bit depth : 16 bits
Compression mode : Lossy
Stream size : 27.3 MiB (3%)
Text #1
ID : 189 (0xBD)-32 (0x20)
Format : RLE
Format/Info : Run-length encoding
Muxing mode : DVD-Video
Duration : 19mn 50s
Delay relative to video : 1s 968ms
Text #2
ID : 189 (0xBD)-33 (0x21)
Format : RLE
Format/Info : Run-length encoding
Muxing mode : DVD-Video
Duration : 19mn 50s
Delay relative to video : 2s 2ms

DVD2

General
Complete name : D:\_DVD_\LOST_SEASON4\LOST_SEASON4_D02\VIDEO_TS\VTS_02_5.VOB
Format : MPEG-PS
File size : 1 024 MiB
Duration : 22mn 12s
Overall bit rate mode : Variable
Overall bit rate : 6 446 Kbps
Video
ID : 224 (0xE0)
Format : MPEG Video
Format version : Version 2
Format profile : Main@Main
Format settings, BVOP : Yes
Format settings, Matrix : Custom
Format settings, GOP : M=3, N=12
Duration : 22mn 12s
Bit rate mode : Variable
Bit rate : 5 230 Kbps
Maximum bit rate : 9 800 Kbps
Width : 720 pixels
Height : 480 pixels
Display aspect ratio : 16:9
Frame rate : 23.976 fps
Standard : NTSC
Color space : YUV
Chroma subsampling : 4:2:0
Bit depth : 8 bits
Scan type : Progressive
Scan order : 2:3 Pulldown
Compression mode : Lossy
Bits/(Pixel*Frame) : 0.631
Stream size : 831 MiB (81%)
Audio #1
ID : 189 (0xBD)-128 (0x80)
Format : AC-3
Format/Info : Audio Coding 3
Mode extension : CM (complete main)
Format settings, Endianness : Big
Muxing mode : DVD-Video
Duration : 22mn 12s
Bit rate mode : Constant
Bit rate : 448 Kbps
Channel(s) : 6 channels
Channel positions : Front: L C R, Side: L R, LFE
Sampling rate : 48.0 KHz
Bit depth : 16 bits
Compression mode : Lossy
Delay relative to video : -395ms
Stream size : 71.2 MiB (7%)
Audio #2
ID : 189 (0xBD)-129 (0x81)
Format : AC-3
Format/Info : Audio Coding 3
Mode extension : CM (complete main)
Format settings, Endianness : Big
Muxing mode : DVD-Video
Duration : 22mn 12s
Bit rate mode : Constant
Bit rate : 192 Kbps
Channel(s) : 2 channels
Channel positions : Front: L R
Sampling rate : 48.0 KHz
Bit depth : 16 bits
Compression mode : Lossy
Delay relative to video : -395ms
Stream size : 30.5 MiB (3%)
Audio #3
ID : 189 (0xBD)-130 (0x82)
Format : AC-3
Format/Info : Audio Coding 3
Mode extension : CM (complete main)
Format settings, Endianness : Big
Muxing mode : DVD-Video
Duration : 22mn 12s
Bit rate mode : Constant
Bit rate : 448 Kbps
Channel(s) : 6 channels
Channel positions : Front: L C R, Side: L R, LFE
Sampling rate : 48.0 KHz
Bit depth : 16 bits
Compression mode : Lossy
Delay relative to video : -427ms
Stream size : 71.2 MiB (7%)
Text #1
ID : 189 (0xBD)-32 (0x20)
Format : RLE
Format/Info : Run-length encoding
Muxing mode : DVD-Video
Duration : 22mn 9s
Delay relative to video : 1s 85ms
Text #2
ID : 189 (0xBD)-33 (0x21)
Format : RLE
Format/Info : Run-length encoding
Muxing mode : DVD-Video
Duration : 22mn 9s
Delay relative to video : 1s 251ms

DVD3

General
Complete name : D:\_DVD_\LOST_SEASON4\LOST_SEASON4_D03\VIDEO_TS\VTS_02_2.VOB
Format : MPEG-PS
File size : 1 024 MiB
Overall bit rate mode : Variable
Video
ID : 224 (0xE0)
Format : MPEG Video
Format version : Version 2
Format profile : Main@Main
Format settings, BVOP : Yes
Format settings, Matrix : Custom
Format settings, GOP : Variable
Bit rate mode : Variable
Maximum bit rate : 9 800 Kbps
Width : 720 pixels
Height : 480 pixels
Display aspect ratio : 16:9
Frame rate : 23.976 fps
Standard : NTSC
Color space : YUV
Chroma subsampling : 4:2:0
Bit depth : 8 bits
Scan type : Progressive
Scan order : 2:3 Pulldown
Compression mode : Lossy
Audio #1
ID : 189 (0xBD)-128 (0x80)
Format : AC-3
Format/Info : Audio Coding 3
Mode extension : CM (complete main)
Format settings, Endianness : Big
Muxing mode : DVD-Video
Bit rate mode : Constant
Bit rate : 448 Kbps
Channel(s) : 6 channels
Channel positions : Front: L C R, Side: L R, LFE
Sampling rate : 48.0 KHz
Bit depth : 16 bits
Compression mode : Lossy
Delay relative to video : -650ms
Audio #2
ID : 189 (0xBD)-129 (0x81)
Format : AC-3
Format/Info : Audio Coding 3
Mode extension : CM (complete main)
Format settings, Endianness : Big
Muxing mode : DVD-Video
Bit rate mode : Constant
Bit rate : 192 Kbps
Channel(s) : 2 channels
Channel positions : Front: L R
Sampling rate : 48.0 KHz
Bit depth : 16 bits
Compression mode : Lossy
Delay relative to video : -554ms
Audio #3
ID : 189 (0xBD)-130 (0x82)
Format : AC-3
Format/Info : Audio Coding 3
Mode extension : CM (complete main)
Format settings, Endianness : Big
Muxing mode : DVD-Video
Bit rate mode : Constant
Bit rate : 448 Kbps
Channel(s) : 6 channels
Channel positions : Front: L C R, Side: L R, LFE
Sampling rate : 48.0 KHz
Bit depth : 16 bits
Compression mode : Lossy
Delay relative to video : -650ms
Text #1
ID : 189 (0xBD)-32 (0x20)
Format : RLE
Format/Info : Run-length encoding
Muxing mode : DVD-Video
Delay relative to video : 1s 235ms
Text #2
ID : 189 (0xBD)-33 (0x21)
Format : RLE
Format/Info : Run-length encoding
Muxing mode : DVD-Video
Delay relative to video : 1s 168ms

DVD4

General
Complete name : D:\_DVD_\LOST_SEASON4\LOST_SEASON4_D04\VIDEO_TS\VTS_02_4.VOB
Format : MPEG-PS
File size : 1 024 MiB
Duration : 20mn 53s
Overall bit rate mode : Variable
Overall bit rate : 6 853 Kbps
Video
ID : 224 (0xE0)
Format : MPEG Video
Format version : Version 2
Format profile : Main@Main
Format settings, BVOP : Yes
Format settings, Matrix : Custom
Format settings, GOP : Variable
Duration : 20mn 52s
Bit rate mode : Variable
Bit rate : 5 437 Kbps
Maximum bit rate : 9 800 Kbps
Width : 720 pixels
Height : 480 pixels
Display aspect ratio : 16:9
Frame rate : 23.976 fps
Standard : NTSC
Color space : YUV
Chroma subsampling : 4:2:0
Bit depth : 8 bits
Scan type : Progressive
Scan order : 2:3 Pulldown
Compression mode : Lossy
Bits/(Pixel*Frame) : 0.656
Stream size : 812 MiB (79%)
Audio #1
ID : 189 (0xBD)-128 (0x80)
Format : AC-3
Format/Info : Audio Coding 3
Mode extension : CM (complete main)
Format settings, Endianness : Big
Muxing mode : DVD-Video
Duration : 20mn 53s
Bit rate mode : Constant
Bit rate : 448 Kbps
Channel(s) : 6 channels
Channel positions : Front: L C R, Side: L R, LFE
Sampling rate : 48.0 KHz
Bit depth : 16 bits
Compression mode : Lossy
Delay relative to video : -761ms
Stream size : 66.9 MiB (7%)
Audio #2
ID : 189 (0xBD)-129 (0x81)
Format : AC-3
Format/Info : Audio Coding 3
Mode extension : CM (complete main)
Format settings, Endianness : Big
Muxing mode : DVD-Video
Duration : 20mn 53s
Bit rate mode : Constant
Bit rate : 192 Kbps
Channel(s) : 2 channels
Channel positions : Front: L R
Sampling rate : 48.0 KHz
Bit depth : 16 bits
Compression mode : Lossy
Delay relative to video : -729ms
Stream size : 28.7 MiB (3%)
Audio #3
ID : 189 (0xBD)-130 (0x82)
Format : AC-3
Format/Info : Audio Coding 3
Mode extension : CM (complete main)
Format settings, Endianness : Big
Muxing mode : DVD-Video
Duration : 20mn 53s
Bit rate mode : Constant
Bit rate : 448 Kbps
Channel(s) : 6 channels
Channel positions : Front: L C R, Side: L R, LFE
Sampling rate : 48.0 KHz
Bit depth : 16 bits
Compression mode : Lossy
Delay relative to video : -761ms
Stream size : 66.9 MiB (7%)
Audio #4
ID : 189 (0xBD)-131 (0x83)
Format : AC-3
Format/Info : Audio Coding 3
Mode extension : CM (complete main)
Format settings, Endianness : Big
Muxing mode : DVD-Video
Duration : 20mn 53s
Bit rate mode : Constant
Bit rate : 192 Kbps
Channel(s) : 2 channels
Channel positions : Front: L R
Sampling rate : 48.0 KHz
Bit depth : 16 bits
Compression mode : Lossy
Delay relative to video : -729ms
Stream size : 28.7 MiB (3%)
Text #1
ID : 189 (0xBD)-32 (0x20)
Format : RLE
Format/Info : Run-length encoding
Muxing mode : DVD-Video
Text #2
ID : 189 (0xBD)-33 (0x21)
Format : RLE
Format/Info : Run-length encoding
Muxing mode : DVD-Video

Бриф по изготовлению DVD

Видео
- FFMpegSource2 - индексирование видеопотока
- AviSynth 2.5 - фреймсервер
- Cinema Craft Encoder SP2 - кодирование видео
Аудио
- BeLight - разложение AC3 на моно WAVs
- UsEac3To - разложение DTS на моно WAVs
- Sonic Foundry Soft Encode - кодирование WAVs в AC3
Субтитры
- Fine Reader - распознавание графических субтитров с Blu-Ray
- MaestroSBT - создание субтитров
- DVDSubEdit - навигация
Меню
- SubRip - подсветка
- Sonic Scenarist - создание PGC
- Adobe Photoshop - графическое редактирование меню
Мультиплексоры/Демультиплексоры
- Ts Muxer - разложение BD на потоки
- MKVExtractGUI2- разложение BD на потоки
- PgcDemux- разложение DVD на потоки
- MuxMan - сборка потоков в DVD
Реавторинг
- DVDReMakePro - программирование, реавторинг DVD

Скрипт

LoadPlugin("C:\Program Files\FFMpegSource2\ffms2.dll") # подключение декодера
FFVideoSource("g:\_MKV_Temp\00023.mkv") #открытие видео
LoadPlugin("C:\Program Files\AutoYUY2\AutoYUY2.dll") #подключение плагина
AutoYUY2() # конверсия цветового пространства
LoadPlugin("c:\Program Files\Color Matrix\ColorMatrix.dll")
ColorMatrix(mode="Rec.709->Rec.601", inputFR=false, clamp=0) # 16-235
#ColorMatrix(mode="Rec.709->Rec.601", inputFR=true, clamp=0) # 0-255
BicubicResize(720, 480, 0, 0.5) #ресайз методом Catmull-Rom spline
AssumeFPS ("ntsc_film") #изменение частоты кадров под стандарт NTSC

Скриншоты

DVD1

Серии

DVD2

Серии

DVD3

Меню

Серии

DVD4

Серии

Обложка и блины

Комментарии создателей на DVD

Если вы не любите упражняться пультом переключая потоки (звук и субтитры), а производите все операции через меню и вам захотелось послушать комментарии создателей, то попрошу заметить один нюанс. Включив комментарии вы не сможете поменять поток пока не выключите комментарии в той же менюшке нажав на кнопку OFF, и вам автоматически восстановится прежний выбор звука и субтитров.
Все раздачи сериала
Вы не можете начинать темы
Вы не можете отвечать на сообщения
Вы не можете редактировать свои сообщения
Вы не можете удалять свои сообщения
Вы не можете голосовать в опросах
Вы не можете прикреплять файлы к сообщениям
Вы можете скачивать файлы
Sitemap